<?xml version="1.0" standalone="no"?>
<!DOCTYPE svg PUBLIC "-//W3C//DTD SVG 1.1//EN" "http://www.w3.org/Graphics/SVG/1.1/DTD/svg11.dtd" >
<svg xmlns="http://www.w3.org/2000/svg" xmlns:xlink="http://www.w3.org/1999/xlink" version="1.1">
<metadata>
Created by FontForge 20170731 at Mon Feb  4 09:25:41 2019
 By test
Copyright 2017-2019 The Inter project authors
</metadata>
<defs>
<font id="Inter-ExtraLight" horiz-adv-x="0" >
  <font-face 
    font-family="Inter"
    font-weight="200"
    font-stretch="normal"
    units-per-em="2816"
    panose-1="2 11 3 2 3 0 0 0 0 4"
    ascent="2252"
    descent="-564"
    x-height="1536"
    cap-height="2048"
    bbox="-2001 -1049 4650 3023"
    underline-thickness="107"
    underline-position="-634"
    unicode-range="U+0020-1F16B"
  />
<missing-glyph horiz-adv-x="2696" 
d="M219 -640v512h2258v-512h-2258zM219 64v512h2258v-512h-2258zM219 768v512h2258v-512h-2258zM219 1472v512h2258v-512h-2258zM219 2176v512h2258v-512h-2258z" />
    <glyph glyph-name=".notdef" horiz-adv-x="2696" 
d="M219 -640v512h2258v-512h-2258zM219 64v512h2258v-512h-2258zM219 768v512h2258v-512h-2258zM219 1472v512h2258v-512h-2258zM219 2176v512h2258v-512h-2258z" />
    <glyph glyph-name=".null" 
 />
    <glyph glyph-name="nonmarkingreturn" horiz-adv-x="938" 
 />
    <glyph glyph-name="uni0020" unicode=" " horiz-adv-x="792" 
 />
    <glyph glyph-name="uni0021" unicode="!" horiz-adv-x="752" 
d="M443 2048l-7 -1451h-120l-7 1451h134zM376 -13q-45 0 -76.5 31.5t-31.5 76.5q0 44 31.5 76t76.5 32q44 0 76 -32t32 -76q0 -45 -32 -76.5t-76 -31.5z" />
    <glyph glyph-name="uni0022" unicode="&#x22;" horiz-adv-x="1019" 
d="M353 2048v-661h-116v661h116zM780 2048v-661h-116v661h116z" />
    <glyph glyph-name="uni0023" unicode="#" horiz-adv-x="1781" 
d="M1028 0l101 613h-611l-101 -613h-109l101 613h-350l18 110h350l98 602h-349l19 110h348l101 613h109l-101 -613h611l101 613h109l-101 -613h351l-19 -110h-350l-98 -602h349l-18 -110h-349l-101 -613h-109zM536 723h611l98 602h-611z" />
    <glyph glyph-name="uni0024" unicode="$" horiz-adv-x="1748" 
d="M827 -256v224q-279 11 -446.5 156.5t-183.5 371.5h128q14 -182 151.5 -291.5t350.5 -119.5v912l-86 26q-241 74 -367 200t-126 313q0 149 75 267t206 190t298 84v227h97v-226q173 -7 305 -79t209 -191.5t85 -271.5h-123q-15 182 -143.5 298.5t-332.5 127.5v-868l91 -27
q153 -46 274.5 -114t191.5 -170.5t70 -250.5q0 -155 -76.5 -279t-217.5 -199t-333 -86v-224h-97zM924 86q225 14 364.5 135.5t139.5 311.5q0 161 -114 256t-334 162l-56 17v-882zM827 1122v839q-202 -16 -329 -132.5t-127 -288.5q0 -159 117.5 -255t302.5 -152z" />
    <glyph glyph-name="uni0025" unicode="%" horiz-adv-x="2213" 
d="M1272 376v79q0 176 99 290t258 114q161 0 258.5 -114t97.5 -290v-79q0 -175 -98.5 -289.5t-257.5 -114.5q-160 0 -258.5 114.5t-98.5 289.5zM228 1593v79q0 176 99 290t258 114q161 0 258.5 -114t97.5 -290v-79q0 -175 -98.5 -289.5t-257.5 -114.5q-160 0 -258.5 114.5
t-98.5 289.5zM1383 455v-79q0 -133 67 -218.5t179 -85.5t179 85.5t67 218.5v79q0 133 -66.5 218.5t-179.5 85.5q-111 0 -178.5 -85.5t-67.5 -218.5zM339 1672v-79q0 -133 67 -218.5t179 -85.5t179 85.5t67 218.5v79q0 133 -66.5 218.5t-179.5 85.5q-111 0 -178.5 -85.5
t-67.5 -218.5zM336 0l1405 2048h127l-1406 -2048h-126z" />
    <glyph glyph-name="uni0026" unicode="&#x26;" horiz-adv-x="1696" 
d="M769 -28q-175 0 -310.5 73t-213 198t-77.5 280q0 156 92 277t285 264l61 45q-133 164 -210 278t-77 244q0 123 60.5 223.5t163.5 159.5t232 59t226.5 -56t152.5 -151t55 -213q0 -130 -69.5 -236.5t-215.5 -219.5l-149 -111l545 -682q103 167 128 391l119 -6
q-12 -160 -64 -279t-107 -200l248 -310h-148l-172 214l-12 -14q-101 -109 -247.5 -168.5t-295.5 -59.5zM1250 307l-569 709l-93 -69q-168 -128 -232.5 -228t-64.5 -196q0 -120 62 -219t169.5 -158.5t244.5 -61.5q147 2 269.5 60.5t213.5 162.5zM700 1179l144 108
q125 94 184 176.5t59 189.5q0 128 -87.5 219t-222.5 91q-92 0 -168.5 -47t-122 -123.5t-45.5 -163.5q0 -99 68.5 -199t190.5 -251z" />
    <glyph glyph-name="uni0027" unicode="'" horiz-adv-x="592" 
d="M353 2048v-661h-116v661h116z" />
    <glyph glyph-name="uni0028" unicode="(" horiz-adv-x="932" 
d="M319 864q0 342 83.5 664.5t240.5 615.5h114q-147 -273 -230.5 -609.5t-83.5 -670.5q0 -335 84 -671.5t230 -608.5h-114q-157 295 -240.5 617.5t-83.5 662.5z" />
    <glyph glyph-name="uni0029" unicode=")" horiz-adv-x="932" 
d="M613 864q0 -342 -83.5 -664.5t-240.5 -615.5h-114q147 273 230.5 609.5t83.5 670.5q0 335 -84 671.5t-230 608.5h114q157 -295 240.5 -617.5t83.5 -662.5z" />
    <glyph glyph-name="uni002A" unicode="*" horiz-adv-x="1408" 
d="M651 896l5 493l-425 -252l-54 94l432 241l-432 241l54 94l425 -252l-5 493h106l-5 -493l425 252l54 -94l-432 -241l432 -241l-54 -94l-425 252l5 -493h-106z" />
    <glyph glyph-name="uni002B" unicode="+" horiz-adv-x="1797" 
d="M840 201v542h-541v117h541v541h117v-541h542v-117h-542v-542h-117z" />
    <glyph glyph-name="uni002C" unicode="," horiz-adv-x="745" 
d="M493 280l-18 -105q-18 -103 -45.5 -232.5t-56.5 -249.5t-53 -193h-95q21 108 55 287t65 381l18 112h130z" />
    <glyph glyph-name="uni002D" unicode="-" horiz-adv-x="1256" 
d="M1032 936v-116h-808v116h808z" />
    <glyph glyph-name="uni002E" unicode="." horiz-adv-x="733" 
d="M367 -13q-45 0 -76.5 31.5t-31.5 76.5q0 44 31.5 76t76.5 32q44 0 76 -32t32 -76q0 -45 -32 -76.5t-76 -31.5z" />
    <glyph glyph-name="uni002F" unicode="/" horiz-adv-x="941" 
d="M860 2144l-660 -2452h-117l660 2452h117z" />
    <glyph glyph-name="uni0030" unicode="0" horiz-adv-x="1696" 
d="M848 -28q-205 0 -352 126t-225.5 361.5t-78.5 564.5q0 328 79 563.5t226 362t351 126.5q205 0 351.5 -126.5t225.5 -362t79 -563.5q0 -329 -78.5 -564.5t-225 -361.5t-352.5 -126zM848 88q249 0 391 247.5t142 688.5t-142.5 689t-390.5 248t-390.5 -248t-142.5 -689
t142 -688.5t391 -247.5z" />
    <glyph glyph-name="uni0031" unicode="1" horiz-adv-x="1172" 
d="M759 2048v-2048h-126v1832h-16q-15 -23 -71.5 -73t-146.5 -92.5t-208 -45.5v112q108 3 191 48.5t140.5 104.5t89.5 107t36 55h111z" />
    <glyph glyph-name="uni0032" unicode="2" horiz-adv-x="1733" 
d="M244 0v95l663 764q142 165 225 278.5t119 206t36 191.5q0 125 -58 221t-159 150.5t-229 54.5q-134 0 -235 -59t-157.5 -160t-56.5 -227h-121q0 159 74 286t203.5 201t295.5 74q163 0 290 -71t200 -193.5t73 -276.5q0 -113 -38.5 -217.5t-131.5 -233.5t-257 -316
l-556 -641v-11h1075v-116h-1255z" />
    <glyph glyph-name="uni0033" unicode="3" horiz-adv-x="1749" 
d="M883 -28q-181 0 -324.5 69.5t-227 191.5t-86.5 279h127q3 -125 71 -220.5t182.5 -149.5t255.5 -54q153 0 268.5 60t180.5 162.5t65 229.5q0 136 -71 238.5t-197.5 160t-295.5 57.5h-76v116h76q143 0 256 52.5t178.5 149t65.5 226.5q0 183 -124.5 302t-325.5 119
q-130 0 -235 -53t-167 -148.5t-64 -223.5h-123q2 159 80 281t211.5 190.5t299.5 68.5q171 0 299 -71t199.5 -191.5t71.5 -269.5q0 -178 -98.5 -304.5t-266.5 -175.5v-11q199 -44 315 -181t116 -332q0 -161 -81.5 -289.5t-225 -203.5t-329.5 -75z" />
    <glyph glyph-name="uni0034" unicode="4" horiz-adv-x="1720" 
d="M193 460v100l927 1488h143v-1472h264v-116h-264v-460h-122v460h-948zM1141 576v1279h-10l-787 -1268v-11h797z" />
    <glyph glyph-name="uni0035" unicode="5" horiz-adv-x="1643" 
d="M801 -28q-164 0 -292.5 69.5t-203 191.5t-76.5 279h123q4 -186 129 -305t320 -119q150 0 264.5 72.5t179.5 197.5t64 282q0 166 -70.5 289.5t-187 192.5t-258.5 69q-112 0 -210.5 -40.5t-166.5 -103.5l-141 20l121 981h960v-116h-853l-94 -767h10q72 65 171.5 104
t216.5 39q173 0 315 -84t226.5 -234t83.5 -349q0 -192 -81.5 -343t-224 -238.5t-325.5 -87.5z" />
    <glyph glyph-name="uni0036" unicode="6" horiz-adv-x="1679" 
d="M855 -28q-172 1 -318.5 99t-235.5 310t-89 552q0 229 36.5 435.5t115.5 366t206 251t309 91.5q238 0 387 -150t171 -391h-124q-21 188 -133.5 306.5t-300.5 118.5q-266 0 -406.5 -260t-140.5 -745h11q60 144 203 234.5t314 90.5q166 0 304 -85t220.5 -232.5t82.5 -335.5
q0 -177 -76.5 -326.5t-214 -240t-321.5 -89.5zM855 88q141 0 251.5 73t174 196t63.5 271q0 151 -65.5 272.5t-178 193t-253.5 71.5q-147 0 -263.5 -77.5t-177 -204.5t-41.5 -275q34 -241 166.5 -380.5t323.5 -139.5z" />
    <glyph glyph-name="uni0037" unicode="7" horiz-adv-x="1563" 
d="M297 0l951 1921v11h-1093v116h1229v-120l-952 -1928h-135z" />
    <glyph glyph-name="uni0038" unicode="8" horiz-adv-x="1709" 
d="M855 -28q-186 0 -335 74.5t-235 201.5t-86 285q0 125 54 235t149.5 187.5t216.5 103.5v9q-155 49 -252.5 181t-97.5 299q0 149 78 268.5t210.5 189.5t297.5 70q163 0 295.5 -69.5t211 -189t78.5 -269.5q-1 -166 -97 -298.5t-252 -181.5v-9q121 -25 215.5 -102.5
t149.5 -188t55 -235.5q0 -158 -87 -285t-235 -201.5t-334 -74.5zM855 88q153 0 273 60t189.5 162.5t69.5 229.5q0 129 -71 234t-191 167t-270 62t-271 -62t-191 -167t-70 -234q0 -127 69 -229.5t189.5 -162.5t273.5 -60zM855 1111q129 0 233.5 58t166.5 156t62 218
t-61.5 214.5t-166 149t-234.5 54.5q-131 0 -236 -54.5t-166 -149t-61 -214.5t61.5 -218t166.5 -156t235 -58z" />
    <glyph glyph-name="uni0039" unicode="9" horiz-adv-x="1679" 
d="M824 2080q172 0 318.5 -98.5t235.5 -310t89 -552.5q0 -229 -36.5 -435.5t-115.5 -367t-206 -252.5t-309 -92q-238 0 -387 151.5t-172 392.5h124q21 -187 134 -307.5t301 -120.5q265 0 406 261t141 747h-11q-60 -144 -203 -234.5t-314 -90.5q-167 0 -305 85t-220 233
t-82 335q0 177 76.5 326.5t214 240t321.5 89.5zM824 1964q-140 0 -251 -73t-174.5 -195.5t-63.5 -271.5q0 -150 65.5 -272t178.5 -193.5t253 -71.5q146 0 262.5 78t177.5 205t41 274q-34 241 -166.5 380.5t-322.5 139.5z" />
    <glyph glyph-name="uni003A" unicode=":" horiz-adv-x="733" 
d="M367 94q-45 0 -76.5 31.5t-31.5 76.5q0 44 31.5 76t76.5 32q44 0 76 -32t32 -76q0 -45 -32 -76.5t-76 -31.5zM367 1170q-45 0 -76.5 31.5t-31.5 76.5q0 44 31.5 76t76.5 32q44 0 76 -32t32 -76q0 -45 -32 -76.5t-76 -31.5z" />
    <glyph glyph-name="uni003B" unicode=";" horiz-adv-x="748" 
d="M493 280l-18 -105q-18 -103 -45.5 -232.5t-56.5 -249.5t-53 -193h-95q21 108 55 287t65 381l18 112h130zM403 1170q-45 0 -76.5 31.5t-31.5 76.5q0 44 31.5 76t76.5 32q44 0 76 -32t32 -76q0 -45 -32 -76.5t-76 -31.5z" />
    <glyph glyph-name="uni003C" unicode="&#x3c;" horiz-adv-x="1797" 
d="M319 752v96l1160 693v-136l-1010 -600v-10l1010 -600v-136z" />
    <glyph glyph-name="uni003D" unicode="=" horiz-adv-x="1797" 
d="M389 465v115h1019v-115h-1019zM389 1020v115h1019v-115h-1019z" />
    <glyph glyph-name="uni003E" unicode="&#x3e;" horiz-adv-x="1797" 
d="M1479 752l-1160 -693v136l1009 599v12l-1009 599v136l1160 -693v-96z" />
    <glyph glyph-name="uni003F" unicode="?" horiz-adv-x="1375" 
d="M564 597v98q1 125 30 210t92.5 151.5t164.5 134.5q131 89 189.5 176.5t58.5 199.5q0 117 -55.5 206.5t-150 140t-212.5 50.5t-214.5 -53t-154 -149t-60.5 -226h-127q3 160 76.5 281.5t198.5 190t281 68.5q157 0 278.5 -66.5t191.5 -182.5t70 -264q0 -140 -68.5 -246
t-221.5 -211q-93 -64 -146 -122t-75 -126t-23 -163v-98h-123zM628 -13q-45 0 -76.5 31.5t-31.5 76.5q0 44 31.5 76t76.5 32q44 0 76 -32t32 -76q0 -45 -32 -76.5t-76 -31.5z" />
    <glyph glyph-name="uni0040" unicode="@" horiz-adv-x="2636" 
d="M1336 1969q255 0 468 -95.5t368 -262t240 -383t85 -459.5q0 -186 -51 -346.5t-157 -259.5t-272 -99q-115 0 -189.5 63t-80.5 220h-10q-60 -129 -178 -214t-282 -84q-163 2 -288 92t-195.5 241.5t-70.5 337.5q0 183 74 329.5t199.5 234t280.5 92.5q156 5 278.5 -72.5
t177.5 -202.5h10v251h113v-949q0 -126 36.5 -180t126.5 -54q173 0 269.5 162t96.5 440q0 221 -76.5 418t-217.5 349t-333.5 239t-425.5 87q-232 0 -429 -86t-342 -241t-225.5 -365t-80.5 -459q0 -250 80 -460t226.5 -364.5t346.5 -239.5t440 -85q165 0 318.5 47.5
t261.5 117.5l45 -96q-127 -81 -294 -128.5t-334 -47.5q-265 0 -485.5 93t-382 262.5t-250 399.5t-88.5 504q0 272 89 500.5t250 397.5t380 262t478 93zM1291 1268q-130 0 -233 -73.5t-163 -197t-60 -273.5q0 -153 57 -281.5t159 -205.5t237 -77q137 0 240.5 71.5t161 199
t57.5 293.5q0 250 -129 397t-327 147z" />
    <glyph glyph-name="uni0041" unicode="A" horiz-adv-x="1792" 
d="M217 0h-132l739 2048h144l739 -2048h-132l-234 655h-890zM492 771h808l-399 1116h-10z" />
    <glyph glyph-name="uni0042" unicode="B" horiz-adv-x="1813" 
d="M296 0v2048h665q279 0 427 -146t148 -382q0 -187 -88 -307.5t-231 -157.5v-12q106 -8 196.5 -73.5t146.5 -177.5t56 -261q0 -235 -152 -383t-449 -148h-719zM421 116h594q231 0 355.5 116t124.5 299q0 129 -60.5 231.5t-167.5 161.5t-248 59h-598v-867zM421 1097h583
q196 0 303.5 123.5t107.5 299.5q0 191 -118 301.5t-336 110.5h-540v-835z" />
    <glyph glyph-name="uni0043" unicode="C" horiz-adv-x="2040" 
d="M1856 1408h-128q-26 138 -114.5 263.5t-229 205t-325.5 79.5q-202 0 -371 -108t-271 -315.5t-102 -508.5q0 -303 102 -511t271 -314.5t371 -106.5q185 0 325.5 79t229 204.5t114.5 264.5h128q-29 -166 -130.5 -319t-269.5 -251t-397 -98q-255 0 -450.5 130.5t-306 367.5
t-110.5 554q0 318 110.5 554.5t306 367t450.5 130.5q229 0 397 -97t269.5 -250t130.5 -321z" />
    <glyph glyph-name="uni0044" unicode="D" horiz-adv-x="2016" 
d="M864 0h-568v2048h612q288 0 493 -121.5t314.5 -349.5t108.5 -546q-1 -487 -252 -759t-708 -272zM421 116h438q411 0 627.5 243t214.5 672q-1 422 -206.5 661.5t-591.5 239.5h-482v-1816z" />
    <glyph glyph-name="uni0045" unicode="E" horiz-adv-x="1657" 
d="M296 0v2048h1140v-116h-1015v-849h954v-116h-954v-851h1039v-116h-1164z" />
    <glyph glyph-name="uni0046" unicode="F" horiz-adv-x="1649" 
d="M296 0v2048h1143v-116h-1018v-849h923v-116h-923v-967h-125z" />
    <glyph glyph-name="uni0047" unicode="G" horiz-adv-x="2084" 
d="M1731 1408q-31 138 -118 263.5t-227 205t-330 79.5q-217 0 -384.5 -114t-262 -323t-94.5 -495q0 -283 94 -492.5t263.5 -324.5t394.5 -115q198 0 352 90t242 258.5t90 403.5h-652v116h774v-116q0 -271 -104 -466.5t-285.5 -300.5t-416.5 -105q-264 0 -461 131
t-305.5 367.5t-108.5 553.5q0 318 109 554.5t303.5 367t451.5 130.5q232 0 401 -99t271 -252t131 -317h-128z" />
    <glyph glyph-name="uni0048" unicode="H" horiz-adv-x="2076" 
d="M296 0v2048h125v-965h1234v965h125v-2048h-125v967h-1234v-967h-125z" />
    <glyph glyph-name="uni0049" unicode="I" horiz-adv-x="717" 
d="M421 2048v-2048h-125v2048h125z" />
    <glyph glyph-name="uni004A" unicode="J" horiz-adv-x="1485" 
d="M1064 2048h125v-1491q0 -204 -70.5 -333t-189 -190.5t-265.5 -61.5q-150 0 -268.5 56.5t-187 156.5t-68.5 231h124q-1 -143 114 -235.5t286 -92.5q111 0 201.5 47t144.5 150t54 272v1491z" />
    <glyph glyph-name="uni004B" unicode="K" horiz-adv-x="1769" 
d="M296 0v2048h125v-1189h14l1080 1189h166l-889 -969l881 -1079h-156l-805 989l-291 -322v-667h-125z" />
    <glyph glyph-name="uni004C" unicode="L" horiz-adv-x="1584" 
d="M296 0v2048h125v-1932h1000v-116h-1125z" />
    <glyph glyph-name="uni004D" unicode="M" horiz-adv-x="2477" 
d="M296 2048h136l789 -1868h14l789 1868h136v-2048h-120v1751h-12l-741 -1751h-118l-741 1751h-12v-1751h-120v2048z" />
    <glyph glyph-name="uni004E" unicode="N" horiz-adv-x="2157" 
d="M1861 2048v-2048h-122l-1306 1821h-12v-1821h-125v2048h123l1306 -1823h12v1823h124z" />
    <glyph glyph-name="uni004F" unicode="O" horiz-adv-x="2117" 
d="M1925 1024q0 -316 -110 -553t-305.5 -368t-450.5 -131q-256 0 -451.5 131.5t-305.5 368t-110 552.5q0 317 110 553.5t305.5 367.5t451.5 131q255 0 450.5 -131t305.5 -367.5t110 -553.5zM1803 1024q0 285 -96 494t-263.5 323.5t-384.5 114.5t-385 -114t-263.5 -323
t-95.5 -495q0 -283 95 -492.5t262.5 -324.5t386.5 -115q217 0 385 114.5t263.5 324t95.5 493.5z" />
    <glyph glyph-name="uni0050" unicode="P" horiz-adv-x="1735" 
d="M296 0v2048h631q195 0 334.5 -80t214.5 -219t75 -317q0 -176 -75 -315.5t-214.5 -219.5t-333.5 -80h-507v-817h-125zM421 933h504q236 0 369 141t133 358q0 218 -133 359t-370 141h-503v-999z" />
    <glyph glyph-name="uni0051" unicode="Q" horiz-adv-x="2117" 
d="M1925 1024q0 -283 -89.5 -503.5t-246.5 -356.5l268 -356h-144l-216 287q-194 -123 -438 -123q-256 0 -451.5 131.5t-305.5 368t-110 552.5q0 317 110 553.5t305.5 367.5t451.5 131q255 0 450.5 -131t305.5 -367.5t110 -553.5zM1085 640h144l286 -378q135 120 211.5 314.5
t76.5 447.5q0 285 -96 494t-263.5 323.5t-384.5 114.5t-385 -114t-263.5 -323t-95.5 -495q0 -283 95 -492.5t262.5 -324.5t386.5 -115q202 0 365 101z" />
    <glyph glyph-name="uni0052" unicode="R" horiz-adv-x="1755" 
d="M296 0v2048h631q195 0 334.5 -76t214.5 -210.5t75 -312.5q0 -207 -103 -355t-290 -205l483 -889h-144l-465 862q-51 -6 -104 -6h-507v-856h-125zM421 973h504q236 0 369 129.5t133 346.5q0 219 -133.5 351t-369.5 132h-503v-959z" />
    <glyph glyph-name="uni0053" unicode="S" horiz-adv-x="1748" 
d="M1400 1536q-16 191 -155.5 309t-360.5 118q-149 0 -265 -54.5t-182 -150t-66 -218.5q0 -159 117.5 -255t302.5 -152l224 -66q153 -46 274.5 -114t191.5 -170.5t70 -250.5q0 -162 -84 -290t-237 -201.5t-361 -73.5q-297 0 -476 147t-196 382h128q15 -190 165 -301
t379 -111q165 0 291 56.5t197 157.5t71 235q0 161 -114 256t-334 162l-239 72q-241 74 -367 200t-126 313q0 158 84 280.5t228.5 192.5t326.5 70q183 0 323 -70.5t222.5 -193t90.5 -279.5h-123z" />
    <glyph glyph-name="uni0054" unicode="T" horiz-adv-x="1755" 
d="M160 1932v116h1435v-116h-655v-1932h-125v1932h-655z" />
    <glyph glyph-name="uni0055" unicode="U" horiz-adv-x="2104" 
d="M1683 2048h125v-1356q0 -215 -100.5 -378.5t-271.5 -255t-384 -91.5q-211 0 -383 92t-272.5 255.5t-100.5 377.5v1356h125v-1356q0 -179 84 -315.5t227 -213t320 -76.5q178 0 320.5 76.5t226.5 213t84 315.5v1356z" />
    <glyph glyph-name="uni0056" unicode="V" horiz-adv-x="1792" 
d="M217 2048l672 -1887h14l672 1887h132l-739 -2048h-144l-739 2048h132z" />
    <glyph glyph-name="uni0057" unicode="W" horiz-adv-x="2565" 
d="M636 0l-563 2048h130l500 -1855h12l492 1855h152l492 -1855h12l500 1855h129l-563 -2048h-144l-497 1843h-11l-497 -1843h-144z" />
    <glyph glyph-name="uni0058" unicode="X" horiz-adv-x="1701" 
d="M240 2048l605 -927h11l605 927h151l-673 -1024l673 -1024h-151l-605 921h-11l-605 -921h-151l679 1024l-679 1024h151z" />
    <glyph glyph-name="uni0059" unicode="Y" horiz-adv-x="1776" 
d="M88 2048h148l645 -988h14l645 988h148l-737 -1119v-929h-126v929z" />
    <glyph glyph-name="uni005A" unicode="Z" horiz-adv-x="1723" 
d="M201 0v103l1171 1829h-1169v116h1318v-103l-1170 -1829h1180v-116h-1330z" />
    <glyph glyph-name="uni005B" unicode="[" horiz-adv-x="932" 
d="M345 -416v2560h432v-108h-314v-2344h314v-108h-432z" />
    <glyph glyph-name="uni005C" unicode="\" horiz-adv-x="880" 
d="M77 2048h139l583 -2356h-136z" />
    <glyph glyph-name="uni005D" unicode="]" horiz-adv-x="932" 
d="M587 2144v-2560h-432v108h314v2344h-314v108h432z" />
    <glyph glyph-name="uni005E" unicode="^" horiz-adv-x="1192" 
d="M125 1120l410 864h122l410 -864h-127l-340 724h-8l-339 -724h-128z" />
    <glyph glyph-name="uni005F" unicode="_" horiz-adv-x="1225" 
d="M1231 0v-151h-1238v151h1238z" />
    <glyph glyph-name="uni0060" unicode="`" horiz-adv-x="1400" 
d="M907 1755h-112l-302 442h146z" />
    <glyph glyph-name="uni0061" unicode="a" horiz-adv-x="1545" 
d="M660 -33q-132 0 -243 53t-177.5 155t-66.5 248q0 192 139.5 295.5t446.5 140.5q117 14 209 28t144.5 42.5t52.5 87.5v64q0 167 -106 266.5t-292 99.5q-164 0 -277 -72.5t-158 -186.5l-115 43q66 166 217.5 247t329.5 81q137 0 256 -51.5t193 -159t74 -275.5v-1073h-122
v277h-9q-60 -129 -186.5 -219.5t-309.5 -90.5zM672 80q144 0 255.5 70.5t174.5 193.5t63 279v226q-48 -40 -164.5 -62.5t-229.5 -35.5q-252 -30 -364 -109.5t-112 -222.5q0 -157 108 -248t269 -91z" />
    <glyph glyph-name="uni0062" unicode="b" horiz-adv-x="1705" 
d="M296 0v2048h121v-855h12q53 149 175.5 257.5t319.5 108.5q185 0 322.5 -102.5t214 -281.5t76.5 -411t-76 -412t-213.5 -282t-322.5 -102q-197 0 -319 109.5t-177 257.5h-14v-335h-119zM416 765q0 -196 60 -351t171.5 -244t267.5 -89q158 0 270 90.5t171.5 245.5t59.5 348
t-59.5 347t-171.5 243.5t-270 89.5q-156 0 -267.5 -88.5t-171.5 -242t-60 -349.5z" />
    <glyph glyph-name="uni0063" unicode="c" horiz-adv-x="1561" 
d="M829 -32q-196 0 -345 104t-232.5 283.5t-83.5 407.5t84 408t233 284t343 104q146 0 266.5 -60t200 -166.5t101.5 -248.5h-124q-29 155 -149.5 258t-293.5 103q-156 0 -278 -87.5t-192 -241t-70 -351.5q0 -195 68 -350t190 -244.5t282 -89.5q169 0 292.5 100t153.5 267
h124q-22 -142 -100 -250t-199 -169t-271 -61z" />
    <glyph glyph-name="uni0064" unicode="d" horiz-adv-x="1705" 
d="M780 -32q-185 0 -323 102t-213.5 282t-75.5 412t76.5 411t214.5 281.5t322 102.5q197 0 319.5 -108.5t175.5 -257.5h12v855h121v-2048h-118v335h-15q-55 -148 -177 -257.5t-319 -109.5zM791 81q156 0 267.5 89t171 244t59.5 351t-59.5 349.5t-171 242t-267.5 88.5
q-158 0 -270.5 -89.5t-172 -243.5t-59.5 -347t59.5 -348t172 -245.5t270.5 -90.5z" />
    <glyph glyph-name="uni0065" unicode="e" horiz-adv-x="1629" 
d="M852 -32q-208 0 -362 103t-238 282t-84 408q0 230 84.5 410t232.5 284t338 104q172 0 317 -90.5t233 -257t88 -394.5v-76h-1172q3 -189 70.5 -338t193 -235.5t299.5 -86.5q125 0 214.5 42.5t147.5 103.5t86 118l111 -45q-35 -77 -108.5 -154t-186 -127.5t-264.5 -50.5z
M291 852h1048q0 167 -68 301t-185 213t-263 79t-261.5 -78.5t-187 -213t-83.5 -301.5z" />
    <glyph glyph-name="uni0066" unicode="f" horiz-adv-x="960" 
d="M833 1536v-109h-336v-1427h-121v1427h-224v109h224v220q0 116 53 198t139.5 125.5t186.5 43.5q53 0 90.5 -8.5t65.5 -19.5l-36 -108q-22 8 -49 14t-63 6q-115 0 -190.5 -71t-75.5 -199v-201h336z" />
    <glyph glyph-name="uni0067" unicode="g" horiz-adv-x="1668" 
d="M807 -608q-215 0 -362 83t-210 225l102 60q50 -112 167.5 -184t302.5 -72q222 0 351.5 114.5t129.5 350.5v382h-12q-53 -149 -180 -246t-316 -97q-182 0 -320 94t-215 265t-77 401q0 231 75.5 409.5t213.5 280t324 101.5q200 0 320.5 -108.5t175.5 -257.5h14v343h118
v-1572q0 -289 -166.5 -430.5t-435.5 -141.5zM791 121q231 0 364.5 174t133.5 474q0 194 -59.5 347t-170.5 241t-268 88q-159 0 -271.5 -89.5t-171.5 -242.5t-59 -344q0 -192 60 -338t172.5 -228t269.5 -82z" />
    <glyph glyph-name="uni0068" unicode="h" horiz-adv-x="1621" 
d="M375 996v-996h-122v2048h122v-755h12q54 120 172.5 191.5t284.5 71.5q233 0 378.5 -145t145.5 -398v-1013h-121v1008q0 197 -117 316t-309 119q-194 0 -320 -123t-126 -324z" />
    <glyph glyph-name="uni0069" unicode="i" horiz-adv-x="639" 
d="M259 0v1536h121v-1536h-121zM320 1808q-40 0 -69.5 28t-29.5 68t29.5 68t69.5 28q41 0 69.5 -28t28.5 -68t-28.5 -68t-69.5 -28z" />
    <glyph glyph-name="uni006A" unicode="j" horiz-adv-x="639" 
d="M259 1536h121v-1723q0 -178 -106.5 -283.5t-274.5 -105.5q-8 0 -17 0.5t-21 2.5l6 113h30q113 0 187.5 72.5t74.5 200.5v1723zM319 1808q-40 0 -69.5 28t-29.5 68t29.5 68t69.5 28q41 0 69.5 -28t28.5 -68t-28.5 -68t-69.5 -28z" />
    <glyph glyph-name="uni006B" unicode="k" horiz-adv-x="1425" 
d="M253 0v2048h122v-1273h14l768 761h159l-665 -660l697 -876h-156l-630 796l-187 -181v-615h-122z" />
    <glyph glyph-name="uni006C" unicode="l" horiz-adv-x="628" 
d="M375 2048v-2048h-122v2048h122z" />
    <glyph glyph-name="uni006D" unicode="m" horiz-adv-x="2384" 
d="M253 0v1536h119v-232h12q44 116 152 184t260 68q167 0 269.5 -80t147.5 -217h11q45 136 161.5 216.5t287.5 80.5q223 0 340.5 -140.5t117.5 -384.5v-1031h-122v1031q0 193 -92 302.5t-270 109.5q-190 0 -292 -119t-102 -303v-1021h-122v1039q0 179 -89.5 291.5
t-270.5 112.5q-182 0 -289 -122t-107 -313v-1008h-122z" />
    <glyph glyph-name="uni006E" unicode="n" horiz-adv-x="1616" 
d="M375 996v-996h-122v1536h119v-243h12q54 119 173 191t283 72q232 0 377.5 -145.5t145.5 -397.5v-1013h-122v1008q0 197 -116.5 316t-307.5 119q-192 0 -317 -123t-125 -324z" />
    <glyph glyph-name="uni006F" unicode="o" horiz-adv-x="1648" 
d="M824 -32q-190 0 -338 102.5t-233 282.5t-85 410q0 231 85 411t233 282.5t338 102.5t338 -103t233 -282.5t85 -410.5q0 -230 -85 -410t-233 -282.5t-338 -102.5zM824 81q162 0 282 91t186.5 246t66.5 345t-66.5 344.5t-187 246t-281.5 91.5q-160 0 -280.5 -91.5
t-187.5 -246t-67 -344.5t66.5 -345t187 -246t281.5 -91z" />
    <glyph glyph-name="uni0070" unicode="p" horiz-adv-x="1657" 
d="M248 -576v2112h119v-343h14q55 148 175.5 257t319.5 109q186 0 323.5 -102t213.5 -281.5t76 -411.5t-76.5 -411.5t-214 -282t-321.5 -102.5q-196 0 -319.5 109t-176.5 258h-12v-911h-121zM368 765q0 -196 60 -351t172 -244t267 -89q157 0 269 90.5t172 245.5t60 348
t-59 347t-171 243.5t-271 89.5q-157 0 -268.5 -88.5t-171 -242t-59.5 -349.5z" />
    <glyph glyph-name="uni0071" unicode="q" horiz-adv-x="1657" 
d="M1409 -576v2112h-119v-343h-14q-55 148 -175.5 257t-319.5 109q-186 0 -323.5 -102t-213.5 -281.5t-76 -411.5t76.5 -411.5t214 -282t321.5 -102.5q196 0 319.5 109t176.5 258h12v-911h121zM1289 765q0 -196 -60 -351t-172 -244t-267 -89q-157 0 -269 90.5t-172 245.5
t-60 348t59 347t171 243.5t271 89.5q157 0 268.5 -88.5t171 -242t59.5 -349.5z" />
    <glyph glyph-name="uni0072" unicode="r" horiz-adv-x="1040" 
d="M253 0v1536h119v-240h11q50 118 168.5 189.5t271.5 71.5q105 0 182 -37l-42 -107q-63 26 -147 26q-128 0 -227.5 -55t-156.5 -151.5t-57 -220.5v-1012h-122z" />
    <glyph glyph-name="uni0073" unicode="s" horiz-adv-x="1416" 
d="M1229 1205l-113 -30q-42 126 -133.5 199.5t-249.5 73.5q-169 0 -276.5 -84t-107.5 -219q0 -217 296 -290l236 -59q366 -91 366 -395q0 -127 -69 -225t-191 -153t-282 -55q-214 0 -352 101t-178 288l117 30q67 -307 412 -307q188 0 303.5 89t115.5 228q0 219 -274 286
l-245 60q-188 46 -282 148t-94 250q0 124 65 218t179 147t261 53q195 0 318 -92t178 -262z" />
    <glyph glyph-name="uni0074" unicode="t" horiz-adv-x="995" 
d="M796 1536v-109h-323v-1064q0 -139 79 -204.5t181 -65.5q33 0 57.5 5.5t46.5 12.5l30 -111q-28 -10 -61.5 -17.5t-80.5 -7.5q-96 0 -181 43t-138.5 124.5t-53.5 198.5v1086h-227v109h227v368h121v-368h323z" />
    <glyph glyph-name="uni0075" unicode="u" horiz-adv-x="1612" 
d="M1237 545v991h122v-1536h-122v249h-10q-54 -118 -174.5 -193.5t-284.5 -75.5q-226 0 -370.5 145.5t-144.5 397.5v1013h122v-1008q0 -192 117 -310.5t301 -118.5q120 0 221 54.5t162 154.5t61 237z" />
    <glyph glyph-name="uni0076" unicode="v" horiz-adv-x="1504" 
d="M1376 1536l-555 -1536h-138l-555 1536h131l488 -1379h10l488 1379h131z" />
    <glyph glyph-name="uni0077" unicode="w" horiz-adv-x="2245" 
d="M588 0l-460 1536h128l396 -1357h11l397 1357h127l396 -1356h10l396 1356h128l-460 -1536h-136l-392 1337h-13l-392 -1337h-136z" />
    <glyph glyph-name="uni0078" unicode="x" horiz-adv-x="1440" 
d="M312 1536l408 -660l408 660h141l-477 -747l504 -789h-141l-435 692l-435 -692h-141l501 789l-474 747h141z" />
    <glyph glyph-name="uni0079" unicode="y" horiz-adv-x="1504" 
d="M341 -604q-46 0 -91 10t-81 26l36 107q143 -54 243.5 -4t163.5 225l79 219l-563 1557h131l488 -1379h10l488 1379h131l-657 -1824q-118 -318 -378 -316z" />
    <glyph glyph-name="uni007A" unicode="z" horiz-adv-x="1463" 
d="M201 0v103l904 1306v11h-854v116h1009v-105l-896 -1304v-11h932v-116h-1095z" />
    <glyph glyph-name="uni007B" unicode="{" horiz-adv-x="932" 
d="M871 -416q-222 -1 -319 113t-97 351v456q0 170 -63 234t-235 65v122q172 1 235 65.5t63 233.5v456q0 237 97 351t319 113v-108q-163 1 -232.5 -84t-69.5 -272v-483q0 -131 -41 -212t-148 -116v-11q107 -35 148 -115.5t41 -211.5v-483q0 -187 69.5 -272t232.5 -84v-108z
" />
    <glyph glyph-name="uni007C" unicode="|" horiz-adv-x="832" 
d="M448 2708v-3368h-64v3368h64z" />
    <glyph glyph-name="uni007D" unicode="}" horiz-adv-x="932" 
d="M61 2144q222 1 319 -113t97 -351v-456q0 -170 63 -234t235 -65v-122q-172 -1 -235 -65.5t-63 -233.5v-456q0 -237 -97 -351t-319 -113v108q163 -1 232.5 84t69.5 272v483q0 131 41 212t148 116v11q-107 35 -148 115.5t-41 211.5v483q0 187 -69.5 272t-232.5 84v108z" />
    <glyph glyph-name="uni007E" unicode="~" horiz-adv-x="1797" 
d="M245 651q11 164 119 251t253 86q103 -1 180.5 -41.5t154.5 -99.5q64 -48 116 -76.5t119 -29.5q98 0 166.5 61.5t83.5 164.5l115 -11q-19 -161 -123.5 -245.5t-240.5 -83.5q-93 0 -164.5 38.5t-148.5 97.5q-66 49 -123 79.5t-133 30.5q-106 1 -178.5 -59.5t-80.5 -168.5z
" />
    <glyph glyph-name="uni00A0" unicode="&#xa0;" horiz-adv-x="792" 
 />
    <glyph glyph-name="uni00A1" unicode="&#xa1;" horiz-adv-x="752" 
d="M443 -520l-7 1451h-120l-7 -1451h134zM376 1541q-45 0 -76.5 -31.5t-31.5 -76.5q0 -44 31.5 -76t76.5 -32q44 0 76 32t32 76q0 45 -32 76.5t-76 31.5z" />
    <glyph glyph-name="uni00A2" unicode="&#xa2;" horiz-adv-x="1561" 
d="M763 -256v227q-178 18 -312 125t-208.5 279.5t-74.5 387.5t75 388t209 280t311 125v224h97v-222q207 -10 355 -140t181 -334h-124q-28 148 -139 249t-273 111v-1362q158 9 272 108t143 258h124q-32 -206 -179 -338t-360 -141v-225h-97zM763 85v1356q-139 -19 -246 -110
t-167.5 -236.5t-60.5 -329.5q0 -182 59 -329t166 -239.5t249 -111.5z" />
    <glyph glyph-name="uni00A3" unicode="&#xa3;" horiz-adv-x="1776" 
d="M1495 0h-1284v116h96q69 0 108.5 50t56 127.5t13.5 159.5l-10 380h-267v119h263l-14 529q-5 184 68 317t201 205.5t286 72.5q167 1 294 -75.5t188.5 -199.5t30.5 -264l-120 32q20 110 -29 199t-144.5 141t-215.5 51q-189 -1 -316 -128t-123 -351l15 -529h503v-119h-499
l11 -380q3 -109 -19.5 -196.5t-76.5 -140.5h984v-116z" />
    <glyph glyph-name="uni00A4" unicode="&#xa4;" horiz-adv-x="1957" 
d="M172 836q0 153 43.5 288.5t121.5 243.5l-189 199l139 149l192 -196q101 83 226 129.5t264 46.5q142 0 270 -48t231 -134l193 202l142 -149l-196 -203q79 -108 123 -242t44 -286q0 -145 -40.5 -274.5t-112.5 -235.5l182 -186l-142 -152l-174 184q-105 -94 -238 -147
t-282 -53q-146 0 -276 51.5t-234 143.5l-172 -179l-139 152l176 182q-72 106 -112 237t-40 277zM368 836q0 -180 81.5 -333t218.5 -245.5t301 -92.5q166 0 301.5 92.5t216 245.5t80.5 333q0 183 -80.5 335.5t-216 244t-301.5 91.5q-164 0 -301 -91.5t-218.5 -244
t-81.5 -335.5z" />
    <glyph glyph-name="uni00A5" unicode="&#xa5;" horiz-adv-x="1496" 
d="M193 2048l547 -1055h16l547 1055h140l-581 -1097h418v-103h-469v-192h469v-103h-469v-553h-126v553h-469v103h469v192h-469v103h418l-581 1097h140z" />
    <glyph glyph-name="uni00A6" unicode="&#xa6;" horiz-adv-x="599" 
d="M243 539h113v-923h-113v923zM356 2048v-919h-113v919h113z" />
    <glyph glyph-name="uni00A7" unicode="&#xa7;" horiz-adv-x="1512" 
d="M1219 1612h-119q-6 147 -93.5 250t-250.5 103q-159 0 -249.5 -96t-90.5 -221q0 -85 40 -146t104 -107.5t136 -89.5l241 -142q91 -54 184.5 -117.5t156.5 -149t63 -205.5q0 -127 -96.5 -220.5t-231.5 -105.5v-4q132 -93 180 -175.5t48 -180.5q0 -134 -65.5 -228.5
t-177 -143.5t-249.5 -49q-219 0 -362.5 128.5t-151.5 342.5h120q8 -163 115.5 -260.5t278.5 -97.5q155 0 264.5 80.5t109.5 227.5q0 104 -68 176.5t-228 166.5l-244 141q-198 116 -305 220.5t-107 255.5q0 128 87.5 227t234.5 105v8q-91 69 -143.5 150t-52.5 193
q0 120 59 217t162.5 154t237.5 57q207 0 331 -130.5t132 -333.5zM1225 691q0 85 -52 150.5t-130.5 119.5t-159.5 102l-270 158q-148 21 -237 -55t-89 -201q0 -109 88.5 -191.5t263.5 -184.5l244 -141q81 -13 159.5 12t130.5 84.5t52 146.5z" />
    <glyph glyph-name="uni00A8" unicode="&#xa8;" horiz-adv-x="1792" 
d="M672 1808q-38 0 -67 29t-29 67q0 41 29 68.5t67 27.5q41 0 68.5 -27.5t27.5 -68.5q0 -38 -27.5 -67t-68.5 -29zM1120 1808q-38 0 -67 29t-29 67q0 41 29 68.5t67 27.5q41 0 68.5 -27.5t27.5 -68.5q0 -38 -27.5 -67t-68.5 -29z" />
    <glyph glyph-name="uni00A9" unicode="&#xa9;" horiz-adv-x="2201" 
d="M144 1004q0 218 74.5 404.5t206 327t305 218.5t371.5 78q199 0 372.5 -78t304.5 -218.5t205.5 -327t75.5 -404.5q-1 -219 -75.5 -407t-205.5 -328t-304.5 -218.5t-372.5 -78.5q-198 0 -371.5 78.5t-305 218.5t-206 328t-74.5 407zM309 1004q0 -183 61.5 -339.5
t171 -273.5t253 -182t306.5 -65q165 0 308.5 65t252.5 182t170 273.5t61 339.5q0 182 -61 337.5t-170 272t-252.5 181.5t-308.5 65q-163 0 -306.5 -65t-253 -181.5t-171 -272t-61.5 -337.5zM1324 820h211q0 -216 -122 -324t-325 -108q-221 0 -347 147.5t-125 384.5v164
q-1 237 125 384.5t347 147.5q203 0 325 -108t122 -324h-204q-1 132 -64.5 190t-178.5 58q-131 0 -198.5 -97.5t-66.5 -250.5v-164q-1 -153 66.5 -250.5t198.5 -97.5q115 0 175 56.5t61 191.5z" />
    <glyph glyph-name="uni00AA" unicode="&#xaa;" horiz-adv-x="1192" 
d="M771 1068q-42 -47 -108.5 -81.5t-162.5 -34.5q-164 0 -252.5 85.5t-88.5 226.5q0 153 116 237.5t348 85.5h140v65q-3 176 -158 176q-88 0 -139 -35t-50 -101l-231 23q0 136 113.5 226.5t306.5 90.5q176 0 284 -95.5t108 -284.5v-432q0 -140 34 -245h-239q-14 44 -21 93z
M763 1427h-140q-118 -1 -170.5 -47t-52.5 -105q0 -123 157 -120q56 -1 113.5 24t92.5 60v188z" />
    <glyph glyph-name="uni00AB" unicode="&#xab;" horiz-adv-x="1493" 
d="M741 220h-120l-404 600v28l404 600h120l-401 -614zM1253 220h-120l-404 600v28l404 600h120l-401 -614z" />
    <glyph glyph-name="uni00AC" unicode="&#xac;" horiz-adv-x="1445" 
d="M1288 1108v-592h-273v356h-854v236h1127z" />
    <glyph glyph-name="uni00AD" unicode="&#xad;" horiz-adv-x="1256" 
d="M1032 936v-116h-808v116h808z" />
    <glyph glyph-name="uni00AE" unicode="&#xae;" horiz-adv-x="2201" 
d="M144 1004q0 218 74.5 404.5t206 327t305 218.5t371.5 78q199 0 372.5 -78t304.5 -218.5t205.5 -327t75.5 -404.5q-1 -219 -75.5 -407t-205.5 -328t-304.5 -218.5t-372.5 -78.5q-198 0 -371.5 78.5t-305 218.5t-206 328t-74.5 407zM309 1004q0 -183 61.5 -339.5
t171 -273.5t253 -182t306.5 -65q165 0 308.5 65t252.5 182t170 273.5t61 339.5q0 182 -61 337.5t-170 272t-252.5 181.5t-308.5 65q-163 0 -306.5 -65t-253 -181.5t-171 -272t-61.5 -337.5zM1121 900h-213v-464h-203v1168h383q197 0 314 -84t117 -260q0 -185 -186 -274
q102 -34 142 -108t40 -170v-76q0 -49 6 -95.5t18 -80.5v-20h-207q-16 33 -18.5 99.5t-1.5 96.5v76q-1 96 -43.5 144t-147.5 48zM908 1084h224q74 0 130.5 41.5t57.5 118.5q-1 99 -53 137.5t-179 38.5h-180v-336z" />
    <glyph glyph-name="uni00AF" unicode="&#xaf;" horiz-adv-x="971" 
d="M855 1957v-109h-739v109h739z" />
    <glyph glyph-name="uni00B0" unicode="&#xb0;" horiz-adv-x="1280" 
d="M640 1211q-119 0 -217 58t-156 155.5t-58 216.5t58 217t156 156t217 58t217 -58t156 -156t58 -217t-58 -216.5t-156 -155.5t-217 -58zM640 1320q89 0 162 43t116 116t43 162t-43 162t-116 116.5t-162 43.5t-162 -43.5t-116 -116.5t-43 -162t43 -162t116 -116t162 -43z
" />
    <glyph glyph-name="uni00B1" unicode="&#xb1;" horiz-adv-x="1797" 
d="M297 941v118h543v477h117v-477h543v-118h-543v-477h-117v477h-543zM297 160v117h1203v-117h-1203z" />
    <glyph glyph-name="uni00B2" unicode="&#xb2;" horiz-adv-x="1168" 
d="M159 1024v84l449 445q129 129 185 209t56 170q0 106 -80 173.5t-202 67.5q-128 0 -207 -73t-79 -180h-112q0 151 112.5 249.5t286.5 98.5q172 0 282.5 -96t110.5 -239q0 -72 -27.5 -137.5t-91.5 -141.5t-173 -183l-345 -343v-5h695v-99h-860z" />
    <glyph glyph-name="uni00B3" unicode="&#xb3;" horiz-adv-x="1175" 
d="M591 1008q-187 0 -312.5 94.5t-126.5 241.5h116q1 -105 94.5 -170.5t228.5 -65.5q143 0 233.5 72.5t90.5 178.5q0 110 -99.5 180t-260.5 70h-58v94h58q135 0 226.5 63.5t91.5 173.5q0 100 -79 166.5t-205 66.5q-124 0 -209 -66t-88 -174h-109q1 149 117.5 242t288.5 93
q176 0 287 -92.5t111 -231.5q0 -108 -70.5 -182t-180.5 -98v-8q137 -25 215 -107.5t78 -195.5q0 -147 -123 -246t-315 -99z" />
    <glyph glyph-name="uni00B4" unicode="&#xb4;" horiz-adv-x="1400" 
d="M493 1755l268 442h146l-302 -442h-112z" />
    <glyph glyph-name="uni00B5" unicode="&#xb5;" horiz-adv-x="1669" 
d="M248 -589v2125h108v-924q-1 -221 129.5 -356.5t350.5 -135.5q217 0 347 137t130 355v924h111v-1536h-121v236h-12q-74 -137 -196.5 -206t-258.5 -69q-138 0 -260.5 69t-196.5 206h-12v-825h-119z" />
    <glyph glyph-name="uni00B6" unicode="&#xb6;" horiz-adv-x="1603" 
d="M1181 0v1932h-210v-1172h-116q-218 0 -369 83.5t-229 229t-78 331.5q0 184 78 329.5t229 230t369 84.5h452v-2048h-126z" />
    <glyph glyph-name="uni00B7" unicode="&#xb7;" horiz-adv-x="749" 
d="M368 975q-45 0 -76.5 31.5t-31.5 76.5q0 44 31.5 76t76.5 32q44 0 76 -32t32 -76q0 -45 -32 -76.5t-76 -31.5z" />
    <glyph glyph-name="uni00B8" unicode="&#xb8;" horiz-adv-x="635" 
d="M268 8h108l-15 -80q95 -14 151.5 -73t56.5 -160q0 -233 -320 -239l-4 95q210 4 211 141q-1 154 -220 157z" />
    <glyph glyph-name="uni00B9" unicode="&#xb9;" horiz-adv-x="795" 
d="M529 2252v-1228h-113v1060h-9q-21 -23 -92.5 -72t-190.5 -51v98q92 3 157.5 44.5t102 87.5t40.5 61h105z" />
    <glyph glyph-name="uni00BA" unicode="&#xba;" horiz-adv-x="1197" 
d="M132 1436v111q0 211 125.5 348t342.5 137t341 -137t124 -348v-111q0 -213 -124 -347.5t-337 -133.5q-218 -1 -345 133.5t-127 347.5zM367 1547v-111q0 -123 59 -203.5t178 -80.5q113 0 169.5 80.5t57.5 203.5v111q-1 119 -58 200t-173 81t-174.5 -81t-58.5 -200z" />
    <glyph glyph-name="uni00BB" unicode="&#xbb;" horiz-adv-x="1507" 
d="M233 220l402 614l-402 614h120l404 -600v-28l-404 -600h-120zM758 220l402 614l-402 614h120l404 -600v-28l-404 -600h-120z" />
    <glyph glyph-name="uni00BC" unicode="&#xbc;" horiz-adv-x="2316" 
d="M339 0l1405 2048h127l-1406 -2048h-126zM484 2048v-1088h-112v931h-9q-18 -22 -84 -65t-170 -45v94q82 1 141.5 37.5t93 78.5t35.5 57h105zM1374 228v89l548 771h132v-764h154v-96h-154v-228h-107v228h-573zM1948 324v621h-8l-441 -617v-4h449z" />
    <glyph glyph-name="uni00BD" unicode="&#xbd;" horiz-adv-x="2483" 
d="M339 0l1405 2048h127l-1406 -2048h-126zM484 2048v-1088h-112v931h-9q-18 -22 -84 -65t-170 -45v94q82 1 141.5 37.5t93 78.5t35.5 57h105zM1569 0v83l407 392q120 117 168 184.5t48 140.5q0 92 -72 150.5t-180 58.5q-112 0 -183.5 -62t-71.5 -155h-109
q0 135 102.5 223.5t262.5 88.5q156 0 257 -87t101 -216q0 -96 -58 -181.5t-206 -226.5l-303 -292v-5h620v-96h-783z" />
    <glyph glyph-name="uni00BE" unicode="&#xbe;" horiz-adv-x="2591" 
d="M616 0l1405 2048h127l-1406 -2048h-126zM1648 228v89l548 771h132v-764h154v-96h-154v-228h-107v228h-573zM2222 324v621h-8l-441 -617v-4h449zM535 944q-170 0 -284.5 85.5t-114.5 217.5h113q0 -91 82.5 -148.5t203.5 -57.5q127 0 206.5 63.5t79.5 154.5q0 96 -88.5 156
t-228.5 60h-53v86h53q121 0 202 57t81 150q0 86 -70 143.5t-182 57.5t-187 -57t-75 -148h-110q1 131 107.5 215.5t264.5 84.5t260 -83t102 -208q0 -93 -62.5 -159t-166.5 -89v-5q125 -22 196 -94t71 -173q0 -132 -112 -220.5t-288 -88.5z" />
    <glyph glyph-name="uni00BF" unicode="&#xbf;" horiz-adv-x="1375" 
d="M811 946v-98q-1 -125 -30 -210t-92.5 -151.5t-164.5 -134.5q-131 -89 -189.5 -176.5t-58.5 -199.5q0 -117 55.5 -206.5t150 -140t212.5 -50.5t214.5 53t154 149t60.5 226h127q-3 -160 -76.5 -281.5t-198.5 -190t-281 -68.5q-157 0 -278.5 66.5t-191.5 182.5t-70 264
q0 140 68.5 246t221.5 211q93 64 146 122t75 126t23 163v98h123zM747 1556q45 0 76.5 -31.5t31.5 -76.5q0 -44 -31.5 -76t-76.5 -32q-44 0 -76 32t-32 76q0 45 32 76.5t76 31.5z" />
    <glyph glyph-name="uni00C0" unicode="&#xc0;" horiz-adv-x="1792" 
d="M217 0h-132l739 2048h144l739 -2048h-132l-234 655h-890zM492 771h808l-399 1116h-10zM964 2267h-112l-302 442h146z" />
    <glyph glyph-name="uni00C1" unicode="&#xc1;" horiz-adv-x="1792" 
d="M217 0h-132l739 2048h144l739 -2048h-132l-234 655h-890zM492 771h808l-399 1116h-10zM828 2267l268 442h146l-302 -442h-112z" />
    <glyph glyph-name="uni00C2" unicode="&#xc2;" horiz-adv-x="1792" 
d="M217 0h-132l739 2048h144l739 -2048h-132l-234 655h-890zM492 771h808l-399 1116h-10zM627 2216l269 298l269 -298h126v10l-354 390h-82l-354 -390v-10h126z" />
    <glyph glyph-name="uni00C3" unicode="&#xc3;" horiz-adv-x="1792" 
d="M217 0h-132l739 2048h144l739 -2048h-132l-234 655h-890zM492 771h808l-399 1116h-10zM531 2313l-104 8q9 113 87.5 185t189.5 72q65 0 113 -23t89 -53t83.5 -53t97.5 -23q65 0 116.5 43.5t61.5 111.5l103 -16q-14 -113 -93.5 -181t-183.5 -68q-66 0 -111.5 23t-84.5 53
t-82 53t-105 23q-71 0 -121 -44t-56 -111z" />
    <glyph glyph-name="uni00C4" unicode="&#xc4;" horiz-adv-x="1792" 
d="M217 0h-132l739 2048h144l739 -2048h-132l-234 655h-890zM492 771h808l-399 1116h-10zM672 2320q-38 0 -67 29t-29 67q0 41 29 68.5t67 27.5q41 0 68.5 -27.5t27.5 -68.5q0 -38 -27.5 -67t-68.5 -29zM1120 2320q-38 0 -67 29t-29 67q0 41 29 68.5t67 27.5
q41 0 68.5 -27.5t27.5 -68.5q0 -38 -27.5 -67t-68.5 -29z" />
    <glyph glyph-name="uni00C5" unicode="&#xc5;" horiz-adv-x="1792" 
d="M217 0h-132l739 2048h144l739 -2048h-132l-234 655h-890zM492 771h808l-399 1116h-10zM896 2160q-109 0 -186 75t-77 181q0 107 77 181.5t186 74.5t185.5 -74.5t76.5 -181.5q0 -106 -76.5 -181t-185.5 -75zM896 2253q68 0 116 48t48 115q0 68 -48 115.5t-116 47.5
q-69 0 -116.5 -47.5t-47.5 -115.5t48 -115.5t116 -47.5z" />
    <glyph glyph-name="uni00C6" unicode="&#xc6;" horiz-adv-x="2729" 
d="M85 0l1027 2048h1396v-116h-1015v-849h954v-116h-954v-851h1039v-116h-1164v655h-818l-326 -655h-139zM608 771h760v1161h-183z" />
    <glyph glyph-name="uni00C7" unicode="&#xc7;" horiz-adv-x="2040" 
d="M1856 1408h-128q-26 138 -114.5 263.5t-229 205t-325.5 79.5q-202 0 -371 -108t-271 -315.5t-102 -508.5q0 -303 102 -511t271 -314.5t371 -106.5q185 0 325.5 79t229 204.5t114.5 264.5h128q-29 -166 -130.5 -319t-269.5 -251t-397 -98q-255 0 -450.5 130.5t-306 367.5
t-110.5 554q0 318 110.5 554.5t306 367t450.5 130.5q229 0 397 -97t269.5 -250t130.5 -321zM1003 3h108l-15 -80q95 -14 151.5 -73t56.5 -160q0 -233 -320 -239l-4 95q210 4 211 141q-1 154 -220 157z" />
    <glyph glyph-name="uni00C8" unicode="&#xc8;" horiz-adv-x="1657" 
d="M296 0v2048h1140v-116h-1015v-849h954v-116h-954v-851h1039v-116h-1164zM938 2267h-112l-302 442h146z" />
    <glyph glyph-name="uni00C9" unicode="&#xc9;" horiz-adv-x="1657" 
d="M296 0v2048h1140v-116h-1015v-849h954v-116h-954v-851h1039v-116h-1164zM801 2267l268 442h146l-302 -442h-112z" />
    <glyph glyph-name="uni00CA" unicode="&#xca;" horiz-adv-x="1657" 
d="M296 0v2048h1140v-116h-1015v-849h954v-116h-954v-851h1039v-116h-1164zM600 2216l269 298l269 -298h126v10l-354 390h-82l-354 -390v-10h126z" />
    <glyph glyph-name="uni00CB" unicode="&#xcb;" horiz-adv-x="1657" 
d="M296 0v2048h1140v-116h-1015v-849h954v-116h-954v-851h1039v-116h-1164zM645 2320q-38 0 -67 29t-29 67q0 41 29 68.5t67 27.5q41 0 68.5 -27.5t27.5 -68.5q0 -38 -27.5 -67t-68.5 -29zM1093 2320q-38 0 -67 29t-29 67q0 41 29 68.5t67 27.5q41 0 68.5 -27.5t27.5 -68.5
q0 -38 -27.5 -67t-68.5 -29z" />
    <glyph glyph-name="uni00CC" unicode="&#xcc;" horiz-adv-x="717" 
d="M421 2048v-2048h-125v2048h125zM427 2267h-112l-302 442h146z" />
    <glyph glyph-name="uni00CD" unicode="&#xcd;" horiz-adv-x="717" 
d="M421 2048v-2048h-125v2048h125zM290 2267l268 442h146l-302 -442h-112z" />
    <glyph glyph-name="uni00CE" unicode="&#xce;" horiz-adv-x="717" 
d="M421 2048v-2048h-125v2048h125zM90 2216l269 298l269 -298h126v10l-354 390h-82l-354 -390v-10h126z" />
    <glyph glyph-name="uni00CF" unicode="&#xcf;" horiz-adv-x="717" 
d="M421 2048v-2048h-125v2048h125zM135 2320q-38 0 -67 29t-29 67q0 41 29 68.5t67 27.5q41 0 68.5 -27.5t27.5 -68.5q0 -38 -27.5 -67t-68.5 -29zM583 2320q-38 0 -67 29t-29 67q0 41 29 68.5t67 27.5q41 0 68.5 -27.5t27.5 -68.5q0 -38 -27.5 -67t-68.5 -29z" />
    <glyph glyph-name="uni00D0" unicode="&#xd0;" horiz-adv-x="2016" 
d="M864 0h-568v2048h612q288 0 493 -121.5t314.5 -349.5t108.5 -546q-1 -487 -252 -759t-708 -272zM421 116h438q411 0 627.5 243t214.5 672q-1 422 -206.5 661.5t-591.5 239.5h-482v-1816zM-41 993v104h800v-104h-800z" />
    <glyph glyph-name="uni00D1" unicode="&#xd1;" horiz-adv-x="2157" 
d="M1861 2048v-2048h-122l-1306 1821h-12v-1821h-125v2048h123l1306 -1823h12v1823h124zM712 2288l-104 8q9 113 87.5 185t189.5 72q65 0 113 -23t89 -53t83.5 -53t97.5 -23q65 0 116.5 43.5t61.5 111.5l103 -16q-14 -113 -93.5 -181t-183.5 -68q-66 0 -111.5 23t-84.5 53
t-82 53t-105 23q-71 0 -121 -44t-56 -111z" />
    <glyph glyph-name="uni00D2" unicode="&#xd2;" horiz-adv-x="2117" 
d="M1925 1024q0 -316 -110 -553t-305.5 -368t-450.5 -131q-256 0 -451.5 131.5t-305.5 368t-110 552.5q0 317 110 553.5t305.5 367.5t451.5 131q255 0 450.5 -131t305.5 -367.5t110 -553.5zM1803 1024q0 285 -96 494t-263.5 323.5t-384.5 114.5t-385 -114t-263.5 -323
t-95.5 -495q0 -283 95 -492.5t262.5 -324.5t386.5 -115q217 0 385 114.5t263.5 324t95.5 493.5zM1127 2267h-112l-302 442h146z" />
    <glyph glyph-name="uni00D3" unicode="&#xd3;" horiz-adv-x="2117" 
d="M1925 1024q0 -316 -110 -553t-305.5 -368t-450.5 -131q-256 0 -451.5 131.5t-305.5 368t-110 552.5q0 317 110 553.5t305.5 367.5t451.5 131q255 0 450.5 -131t305.5 -367.5t110 -553.5zM1803 1024q0 285 -96 494t-263.5 323.5t-384.5 114.5t-385 -114t-263.5 -323
t-95.5 -495q0 -283 95 -492.5t262.5 -324.5t386.5 -115q217 0 385 114.5t263.5 324t95.5 493.5zM990 2267l268 442h146l-302 -442h-112z" />
    <glyph glyph-name="uni00D4" unicode="&#xd4;" horiz-adv-x="2117" 
d="M1925 1024q0 -316 -110 -553t-305.5 -368t-450.5 -131q-256 0 -451.5 131.5t-305.5 368t-110 552.5q0 317 110 553.5t305.5 367.5t451.5 131q255 0 450.5 -131t305.5 -367.5t110 -553.5zM1803 1024q0 285 -96 494t-263.5 323.5t-384.5 114.5t-385 -114t-263.5 -323
t-95.5 -495q0 -283 95 -492.5t262.5 -324.5t386.5 -115q217 0 385 114.5t263.5 324t95.5 493.5zM790 2216l269 298l269 -298h126v10l-354 390h-82l-354 -390v-10h126z" />
    <glyph glyph-name="uni00D5" unicode="&#xd5;" horiz-adv-x="2117" 
d="M1925 1024q0 -316 -110 -553t-305.5 -368t-450.5 -131q-256 0 -451.5 131.5t-305.5 368t-110 552.5q0 317 110 553.5t305.5 367.5t451.5 131q255 0 450.5 -131t305.5 -367.5t110 -553.5zM1803 1024q0 285 -96 494t-263.5 323.5t-384.5 114.5t-385 -114t-263.5 -323
t-95.5 -495q0 -283 95 -492.5t262.5 -324.5t386.5 -115q217 0 385 114.5t263.5 324t95.5 493.5zM694 2313l-104 8q9 113 87.5 185t189.5 72q65 0 113 -23t89 -53t83.5 -53t97.5 -23q65 0 116.5 43.5t61.5 111.5l103 -16q-14 -113 -93.5 -181t-183.5 -68q-66 0 -111.5 23
t-84.5 53t-82 53t-105 23q-71 0 -121 -44t-56 -111z" />
    <glyph glyph-name="uni00D6" unicode="&#xd6;" horiz-adv-x="2117" 
d="M1925 1024q0 -316 -110 -553t-305.5 -368t-450.5 -131q-256 0 -451.5 131.5t-305.5 368t-110 552.5q0 317 110 553.5t305.5 367.5t451.5 131q255 0 450.5 -131t305.5 -367.5t110 -553.5zM1803 1024q0 285 -96 494t-263.5 323.5t-384.5 114.5t-385 -114t-263.5 -323
t-95.5 -495q0 -283 95 -492.5t262.5 -324.5t386.5 -115q217 0 385 114.5t263.5 324t95.5 493.5zM835 2320q-38 0 -67 29t-29 67q0 41 29 68.5t67 27.5q41 0 68.5 -27.5t27.5 -68.5q0 -38 -27.5 -67t-68.5 -29zM1283 2320q-38 0 -67 29t-29 67q0 41 29 68.5t67 27.5
q41 0 68.5 -27.5t27.5 -68.5q0 -38 -27.5 -67t-68.5 -29z" />
    <glyph glyph-name="uni00D7" unicode="&#xd7;" horiz-adv-x="1797" 
d="M1422 195l-523 524l-524 -524l-81 82l523 523l-523 523l81 82l524 -523l523 523l81 -82l-523 -523l523 -523z" />
    <glyph glyph-name="uni00D8" unicode="&#xd8;" horiz-adv-x="2117" 
d="M403 -60l-86 59l149 225q-129 139 -201.5 343t-72.5 457q0 317 110 553.5t305.5 367.5t451.5 131q149 0 279 -46t235 -133l139 210l85 -59l-147 -223q130 -138 202.5 -342.5t72.5 -458.5q0 -316 -110 -553t-305.5 -368t-450.5 -131q-150 0 -280.5 46.5t-235.5 133.5z
M1803 1024q0 221 -59 397.5t-164 298.5l-969 -1466q188 -162 448 -162q217 0 385 114.5t263.5 324t95.5 493.5zM536 330l969 1464q-188 162 -446 162q-217 0 -385 -114t-263.5 -323t-95.5 -495q0 -220 58 -396t163 -298z" />
    <glyph glyph-name="uni00D9" unicode="&#xd9;" horiz-adv-x="2104" 
d="M1683 2048h125v-1356q0 -215 -100.5 -378.5t-271.5 -255t-384 -91.5q-211 0 -383 92t-272.5 255.5t-100.5 377.5v1356h125v-1356q0 -179 84 -315.5t227 -213t320 -76.5q178 0 320.5 76.5t226.5 213t84 315.5v1356zM1120 2267h-112l-302 442h146z" />
    <glyph glyph-name="uni00DA" unicode="&#xda;" horiz-adv-x="2104" 
d="M1683 2048h125v-1356q0 -215 -100.5 -378.5t-271.5 -255t-384 -91.5q-211 0 -383 92t-272.5 255.5t-100.5 377.5v1356h125v-1356q0 -179 84 -315.5t227 -213t320 -76.5q178 0 320.5 76.5t226.5 213t84 315.5v1356zM984 2267l268 442h146l-302 -442h-112z" />
    <glyph glyph-name="uni00DB" unicode="&#xdb;" horiz-adv-x="2104" 
d="M1683 2048h125v-1356q0 -215 -100.5 -378.5t-271.5 -255t-384 -91.5q-211 0 -383 92t-272.5 255.5t-100.5 377.5v1356h125v-1356q0 -179 84 -315.5t227 -213t320 -76.5q178 0 320.5 76.5t226.5 213t84 315.5v1356zM783 2216l269 298l269 -298h126v10l-354 390h-82
l-354 -390v-10h126z" />
    <glyph glyph-name="uni00DC" unicode="&#xdc;" horiz-adv-x="2104" 
d="M1683 2048h125v-1356q0 -215 -100.5 -378.5t-271.5 -255t-384 -91.5q-211 0 -383 92t-272.5 255.5t-100.5 377.5v1356h125v-1356q0 -179 84 -315.5t227 -213t320 -76.5q178 0 320.5 76.5t226.5 213t84 315.5v1356zM828 2320q-38 0 -67 29t-29 67q0 41 29 68.5t67 27.5
q41 0 68.5 -27.5t27.5 -68.5q0 -38 -27.5 -67t-68.5 -29zM1276 2320q-38 0 -67 29t-29 67q0 41 29 68.5t67 27.5q41 0 68.5 -27.5t27.5 -68.5q0 -38 -27.5 -67t-68.5 -29z" />
    <glyph glyph-name="uni00DD" unicode="&#xdd;" horiz-adv-x="1776" 
d="M88 2048h148l645 -988h14l645 988h148l-737 -1119v-929h-126v929zM820 2267l268 442h146l-302 -442h-112z" />
    <glyph glyph-name="uni00DE" unicode="&#xde;" horiz-adv-x="1701" 
d="M272 2048h123v-456h460q199 0 336.5 -78t209 -206t71.5 -277q0 -151 -71.5 -280t-209 -207t-336.5 -77h-460v-467h-123v2048zM395 612h460q233 -1 366.5 101t134.5 314q-1 209 -134.5 315.5t-366.5 106.5h-460v-837z" />
    <glyph glyph-name="uni00DF" unicode="&#xdf;" horiz-adv-x="1613" 
d="M296 0v1535q0 167 67 288.5t183.5 187t264.5 65.5q151 0 265 -64.5t178 -179t65 -265.5q-1 -187 -98 -310.5t-245 -180.5v-20q191 -23 319.5 -151t129.5 -341q1 -150 -67 -278.5t-192 -207t-294 -78.5h-195v135h247q180 0 287 114t109 288q-1 184 -120 307t-321 124h-194
v152h142q120 0 207 62t134.5 160t47.5 205q-1 110 -51 201t-141 145t-215 54q-114 0 -206 -47.5t-145.5 -131t-53.5 -191.5v-1577h-108z" />
    <glyph glyph-name="uni00E0" unicode="&#xe0;" horiz-adv-x="1545" 
d="M660 -33q-132 0 -243 53t-177.5 155t-66.5 248q0 192 139.5 295.5t446.5 140.5q117 14 209 28t144.5 42.5t52.5 87.5v64q0 167 -106 266.5t-292 99.5q-164 0 -277 -72.5t-158 -186.5l-115 43q66 166 217.5 247t329.5 81q137 0 256 -51.5t193 -159t74 -275.5v-1073h-122
v277h-9q-60 -129 -186.5 -219.5t-309.5 -90.5zM672 80q144 0 255.5 70.5t174.5 193.5t63 279v226q-48 -40 -164.5 -62.5t-229.5 -35.5q-252 -30 -364 -109.5t-112 -222.5q0 -157 108 -248t269 -91zM848 1755h-112l-302 442h146z" />
    <glyph glyph-name="uni00E1" unicode="&#xe1;" horiz-adv-x="1545" 
d="M660 -33q-132 0 -243 53t-177.5 155t-66.5 248q0 192 139.5 295.5t446.5 140.5q117 14 209 28t144.5 42.5t52.5 87.5v64q0 167 -106 266.5t-292 99.5q-164 0 -277 -72.5t-158 -186.5l-115 43q66 166 217.5 247t329.5 81q137 0 256 -51.5t193 -159t74 -275.5v-1073h-122
v277h-9q-60 -129 -186.5 -219.5t-309.5 -90.5zM672 80q144 0 255.5 70.5t174.5 193.5t63 279v226q-48 -40 -164.5 -62.5t-229.5 -35.5q-252 -30 -364 -109.5t-112 -222.5q0 -157 108 -248t269 -91zM712 1755l268 442h146l-302 -442h-112z" />
    <glyph glyph-name="uni00E2" unicode="&#xe2;" horiz-adv-x="1545" 
d="M660 -33q-132 0 -243 53t-177.5 155t-66.5 248q0 192 139.5 295.5t446.5 140.5q117 14 209 28t144.5 42.5t52.5 87.5v64q0 167 -106 266.5t-292 99.5q-164 0 -277 -72.5t-158 -186.5l-115 43q66 166 217.5 247t329.5 81q137 0 256 -51.5t193 -159t74 -275.5v-1073h-122
v277h-9q-60 -129 -186.5 -219.5t-309.5 -90.5zM672 80q144 0 255.5 70.5t174.5 193.5t63 279v226q-48 -40 -164.5 -62.5t-229.5 -35.5q-252 -30 -364 -109.5t-112 -222.5q0 -157 108 -248t269 -91zM511 1704l269 298l269 -298h126v10l-354 390h-82l-354 -390v-10h126z" />
    <glyph glyph-name="uni00E3" unicode="&#xe3;" horiz-adv-x="1545" 
d="M660 -33q-132 0 -243 53t-177.5 155t-66.5 248q0 192 139.5 295.5t446.5 140.5q117 14 209 28t144.5 42.5t52.5 87.5v64q0 167 -106 266.5t-292 99.5q-164 0 -277 -72.5t-158 -186.5l-115 43q66 166 217.5 247t329.5 81q137 0 256 -51.5t193 -159t74 -275.5v-1073h-122
v277h-9q-60 -129 -186.5 -219.5t-309.5 -90.5zM672 80q144 0 255.5 70.5t174.5 193.5t63 279v226q-48 -40 -164.5 -62.5t-229.5 -35.5q-252 -30 -364 -109.5t-112 -222.5q0 -157 108 -248t269 -91zM414 1776l-104 8q9 113 87.5 185t189.5 72q65 0 113 -23t89 -53t83.5 -53
t97.5 -23q65 0 116.5 43.5t61.5 111.5l103 -16q-14 -113 -93.5 -181t-183.5 -68q-66 0 -111.5 23t-84.5 53t-82 53t-105 23q-71 0 -121 -44t-56 -111z" />
    <glyph glyph-name="uni00E4" unicode="&#xe4;" horiz-adv-x="1545" 
d="M660 -33q-132 0 -243 53t-177.5 155t-66.5 248q0 192 139.5 295.5t446.5 140.5q117 14 209 28t144.5 42.5t52.5 87.5v64q0 167 -106 266.5t-292 99.5q-164 0 -277 -72.5t-158 -186.5l-115 43q66 166 217.5 247t329.5 81q137 0 256 -51.5t193 -159t74 -275.5v-1073h-122
v277h-9q-60 -129 -186.5 -219.5t-309.5 -90.5zM672 80q144 0 255.5 70.5t174.5 193.5t63 279v226q-48 -40 -164.5 -62.5t-229.5 -35.5q-252 -30 -364 -109.5t-112 -222.5q0 -157 108 -248t269 -91zM556 1808q-38 0 -67 29t-29 67q0 41 29 68.5t67 27.5q41 0 68.5 -27.5
t27.5 -68.5q0 -38 -27.5 -67t-68.5 -29zM1004 1808q-38 0 -67 29t-29 67q0 41 29 68.5t67 27.5q41 0 68.5 -27.5t27.5 -68.5q0 -38 -27.5 -67t-68.5 -29z" />
    <glyph glyph-name="uni00E5" unicode="&#xe5;" horiz-adv-x="1545" 
d="M660 -33q-132 0 -243 53t-177.5 155t-66.5 248q0 192 139.5 295.5t446.5 140.5q117 14 209 28t144.5 42.5t52.5 87.5v64q0 167 -106 266.5t-292 99.5q-164 0 -277 -72.5t-158 -186.5l-115 43q66 166 217.5 247t329.5 81q137 0 256 -51.5t193 -159t74 -275.5v-1073h-122
v277h-9q-60 -129 -186.5 -219.5t-309.5 -90.5zM672 80q144 0 255.5 70.5t174.5 193.5t63 279v226q-48 -40 -164.5 -62.5t-229.5 -35.5q-252 -30 -364 -109.5t-112 -222.5q0 -157 108 -248t269 -91zM780 1721q-115 0 -194.5 77t-79.5 189q0 111 79.5 190t194.5 79
q114 0 193 -79t79 -190q0 -112 -79 -189t-193 -77zM780 1815q74 0 123.5 51t49.5 121q0 71 -49.5 122.5t-123.5 51.5t-124 -51.5t-50 -122.5q0 -70 50.5 -121t123.5 -51z" />
    <glyph glyph-name="uni00E6" unicode="&#xe6;" horiz-adv-x="2599" 
d="M1821 -32q-217 0 -373.5 111t-227.5 293q-69 -205 -227 -305t-333 -100q-132 0 -243 53t-177.5 155t-66.5 248q0 192 139.5 295.5t446.5 140.5q117 14 209 28t144.5 43t52.5 87v64q0 167 -106 266.5t-292 99.5q-164 0 -277 -72.5t-158 -186.5l-115 43q66 166 217.5 247
t329.5 81q176 0 313.5 -84.5t183.5 -248.5q82 154 219 243.5t312 89.5q172 0 317.5 -90.5t233.5 -257t88 -394.5v-76h-1171v-21q6 -185 74.5 -329t192 -227t294.5 -83q126 0 215.5 42.5t147 103.5t85.5 118l111 -45q-34 -77 -108 -154t-186.5 -127.5t-264.5 -50.5zM1268 914
l-3 -62h1043q0 166 -68 300.5t-184.5 213.5t-263.5 79q-137 0 -247.5 -69.5t-182.5 -189.5t-94 -272zM672 80q144 0 255.5 70.5t174.5 193.5t63 279v226q-48 -40 -164.5 -62.5t-229.5 -35.5q-252 -30 -364 -109.5t-112 -222.5q0 -157 108 -248t269 -91z" />
    <glyph glyph-name="uni00E7" unicode="&#xe7;" horiz-adv-x="1561" 
d="M829 -32q-196 0 -345 104t-232.5 283.5t-83.5 407.5t84 408t233 284t343 104q146 0 266.5 -60t200 -166.5t101.5 -248.5h-124q-29 155 -149.5 258t-293.5 103q-156 0 -278 -87.5t-192 -241t-70 -351.5q0 -195 68 -350t190 -244.5t282 -89.5q169 0 292.5 100t153.5 267
h124q-22 -142 -100 -250t-199 -169t-271 -61zM760 8h108l-15 -80q95 -14 151.5 -73t56.5 -160q0 -233 -320 -239l-4 95q210 4 211 141q-1 154 -220 157z" />
    <glyph glyph-name="uni00E8" unicode="&#xe8;" horiz-adv-x="1629" 
d="M852 -32q-208 0 -362 103t-238 282t-84 408q0 230 84.5 410t232.5 284t338 104q172 0 317 -90.5t233 -257t88 -394.5v-76h-1172q3 -189 70.5 -338t193 -235.5t299.5 -86.5q125 0 214.5 42.5t147.5 103.5t86 118l111 -45q-35 -77 -108.5 -154t-186 -127.5t-264.5 -50.5z
M291 852h1048q0 167 -68 301t-185 213t-263 79t-261.5 -78.5t-187 -213t-83.5 -301.5zM884 1755h-112l-302 442h146z" />
    <glyph glyph-name="uni00E9" unicode="&#xe9;" horiz-adv-x="1629" 
d="M852 -32q-208 0 -362 103t-238 282t-84 408q0 230 84.5 410t232.5 284t338 104q172 0 317 -90.5t233 -257t88 -394.5v-76h-1172q3 -189 70.5 -338t193 -235.5t299.5 -86.5q125 0 214.5 42.5t147.5 103.5t86 118l111 -45q-35 -77 -108.5 -154t-186 -127.5t-264.5 -50.5z
M291 852h1048q0 167 -68 301t-185 213t-263 79t-261.5 -78.5t-187 -213t-83.5 -301.5zM748 1755l268 442h146l-302 -442h-112z" />
    <glyph glyph-name="uni00EA" unicode="&#xea;" horiz-adv-x="1629" 
d="M852 -32q-208 0 -362 103t-238 282t-84 408q0 230 84.5 410t232.5 284t338 104q172 0 317 -90.5t233 -257t88 -394.5v-76h-1172q3 -189 70.5 -338t193 -235.5t299.5 -86.5q125 0 214.5 42.5t147.5 103.5t86 118l111 -45q-35 -77 -108.5 -154t-186 -127.5t-264.5 -50.5z
M291 852h1048q0 167 -68 301t-185 213t-263 79t-261.5 -78.5t-187 -213t-83.5 -301.5zM547 1704l269 298l269 -298h126v10l-354 390h-82l-354 -390v-10h126z" />
    <glyph glyph-name="uni00EB" unicode="&#xeb;" horiz-adv-x="1629" 
d="M852 -32q-208 0 -362 103t-238 282t-84 408q0 230 84.5 410t232.5 284t338 104q172 0 317 -90.5t233 -257t88 -394.5v-76h-1172q3 -189 70.5 -338t193 -235.5t299.5 -86.5q125 0 214.5 42.5t147.5 103.5t86 118l111 -45q-35 -77 -108.5 -154t-186 -127.5t-264.5 -50.5z
M291 852h1048q0 167 -68 301t-185 213t-263 79t-261.5 -78.5t-187 -213t-83.5 -301.5zM592 1808q-38 0 -67 29t-29 67q0 41 29 68.5t67 27.5q41 0 68.5 -27.5t27.5 -68.5q0 -38 -27.5 -67t-68.5 -29zM1040 1808q-38 0 -67 29t-29 67q0 41 29 68.5t67 27.5q41 0 68.5 -27.5
t27.5 -68.5q0 -38 -27.5 -67t-68.5 -29z" />
    <glyph glyph-name="uni00EC" unicode="&#xec;" horiz-adv-x="639" 
d="M259 0v1536h121v-1536h-121zM388 1755h-112l-302 442h146z" />
    <glyph glyph-name="uni00ED" unicode="&#xed;" horiz-adv-x="639" 
d="M259 0v1536h121v-1536h-121zM252 1755l268 442h146l-302 -442h-112z" />
    <glyph glyph-name="uni00EE" unicode="&#xee;" horiz-adv-x="639" 
d="M259 0v1536h121v-1536h-121zM51 1704l269 298l269 -298h126v10l-354 390h-82l-354 -390v-10h126z" />
    <glyph glyph-name="uni00EF" unicode="&#xef;" horiz-adv-x="639" 
d="M259 0v1536h121v-1536h-121zM96 1808q-38 0 -67 29t-29 67q0 41 29 68.5t67 27.5q41 0 68.5 -27.5t27.5 -68.5q0 -38 -27.5 -67t-68.5 -29zM544 1808q-38 0 -67 29t-29 67q0 41 29 68.5t67 27.5q41 0 68.5 -27.5t27.5 -68.5q0 -38 -27.5 -67t-68.5 -29z" />
    <glyph glyph-name="uni00F0" unicode="&#xf0;" horiz-adv-x="1647" 
d="M1363 1996l-339 -157q194 -199 326 -472.5t133 -614.5q-1 -372 -181.5 -578t-477.5 -206q-202 0 -350 95t-228.5 261t-80.5 380q0 225 88 399t242 268.5t352 79.5q144 -6 242 -67t158 -142.5t89 -149.5h20q-30 135 -130 327.5t-296 375.5l-363 -168l-36 102l310 144
q-68 55 -147 106t-169 96l48 101q93 -49 186 -113.5t181 -143.5l387 180zM813 100q180 0 299 82.5t178.5 214.5t60.5 280q-1 95 -29.5 208t-91 215.5t-165 168t-252.5 66.5q-136 -1 -235 -57t-163.5 -148.5t-96 -203.5t-31.5 -222q0 -104 28.5 -210.5t90.5 -195.5
t162.5 -143.5t244.5 -54.5z" />
    <glyph glyph-name="uni00F1" unicode="&#xf1;" horiz-adv-x="1616" 
d="M375 996v-996h-122v1536h119v-243h12q54 119 173 191t283 72q232 0 377.5 -145.5t145.5 -397.5v-1013h-122v1008q0 197 -116.5 316t-307.5 119q-192 0 -317 -123t-125 -324zM444 1776l-104 8q9 113 87.5 185t189.5 72q65 0 113 -23t89 -53t83.5 -53t97.5 -23
q65 0 116.5 43.5t61.5 111.5l103 -16q-14 -113 -93.5 -181t-183.5 -68q-66 0 -111.5 23t-84.5 53t-82 53t-105 23q-71 0 -121 -44t-56 -111z" />
    <glyph glyph-name="uni00F2" unicode="&#xf2;" horiz-adv-x="1648" 
d="M824 -32q-190 0 -338 102.5t-233 282.5t-85 410q0 231 85 411t233 282.5t338 102.5t338 -103t233 -282.5t85 -410.5q0 -230 -85 -410t-233 -282.5t-338 -102.5zM824 81q162 0 282 91t186.5 246t66.5 345t-66.5 344.5t-187 246t-281.5 91.5q-160 0 -280.5 -91.5
t-187.5 -246t-67 -344.5t66.5 -345t187 -246t281.5 -91zM892 1755h-112l-302 442h146z" />
    <glyph glyph-name="uni00F3" unicode="&#xf3;" horiz-adv-x="1648" 
d="M824 -32q-190 0 -338 102.5t-233 282.5t-85 410q0 231 85 411t233 282.5t338 102.5t338 -103t233 -282.5t85 -410.5q0 -230 -85 -410t-233 -282.5t-338 -102.5zM824 81q162 0 282 91t186.5 246t66.5 345t-66.5 344.5t-187 246t-281.5 91.5q-160 0 -280.5 -91.5
t-187.5 -246t-67 -344.5t66.5 -345t187 -246t281.5 -91zM756 1755l268 442h146l-302 -442h-112z" />
    <glyph glyph-name="uni00F4" unicode="&#xf4;" horiz-adv-x="1648" 
d="M824 -32q-190 0 -338 102.5t-233 282.5t-85 410q0 231 85 411t233 282.5t338 102.5t338 -103t233 -282.5t85 -410.5q0 -230 -85 -410t-233 -282.5t-338 -102.5zM824 81q162 0 282 91t186.5 246t66.5 345t-66.5 344.5t-187 246t-281.5 91.5q-160 0 -280.5 -91.5
t-187.5 -246t-67 -344.5t66.5 -345t187 -246t281.5 -91zM555 1704l269 298l269 -298h126v10l-354 390h-82l-354 -390v-10h126z" />
    <glyph glyph-name="uni00F5" unicode="&#xf5;" horiz-adv-x="1695" 
d="M559 1776l-104 8q9 113 87.5 185t189.5 72q65 0 113 -23t89 -53t83.5 -53t97.5 -23q65 0 116.5 43.5t61.5 111.5l103 -16q-14 -113 -93.5 -181t-183.5 -68q-66 0 -111.5 23t-84.5 53t-82 53t-105 23q-71 0 -121 -44t-56 -111zM821 -32q-190 0 -338 102.5t-233 282.5
t-85 410q0 231 85 411t233 282.5t338 102.5t338 -103t233 -282.5t85 -410.5q0 -230 -85 -410t-233 -282.5t-338 -102.5zM821 81q162 0 282 91t186.5 246t66.5 345t-66.5 344.5t-187 246t-281.5 91.5q-160 0 -280.5 -91.5t-187.5 -246t-67 -344.5t66.5 -345t187 -246
t281.5 -91z" />
    <glyph glyph-name="uni00F6" unicode="&#xf6;" horiz-adv-x="1648" 
d="M824 -32q-190 0 -338 102.5t-233 282.5t-85 410q0 231 85 411t233 282.5t338 102.5t338 -103t233 -282.5t85 -410.5q0 -230 -85 -410t-233 -282.5t-338 -102.5zM824 81q162 0 282 91t186.5 246t66.5 345t-66.5 344.5t-187 246t-281.5 91.5q-160 0 -280.5 -91.5
t-187.5 -246t-67 -344.5t66.5 -345t187 -246t281.5 -91zM600 1808q-38 0 -67 29t-29 67q0 41 29 68.5t67 27.5q41 0 68.5 -27.5t27.5 -68.5q0 -38 -27.5 -67t-68.5 -29zM1048 1808q-38 0 -67 29t-29 67q0 41 29 68.5t67 27.5q41 0 68.5 -27.5t27.5 -68.5q0 -38 -27.5 -67
t-68.5 -29z" />
    <glyph glyph-name="uni00F7" unicode="&#xf7;" horiz-adv-x="1797" 
d="M1499 859v-118h-1200v118h1200zM899 1169q-45 0 -76.5 31.5t-31.5 76.5q0 44 31.5 75.5t76.5 31.5q44 0 75 -31.5t31 -75.5q0 -45 -31 -76.5t-75 -31.5zM899 216q-45 0 -76.5 31.5t-31.5 76.5q0 44 31.5 75.5t76.5 31.5q44 0 75 -31.5t31 -75.5q0 -45 -31 -76.5
t-75 -31.5z" />
    <glyph glyph-name="uni00F8" unicode="&#xf8;" horiz-adv-x="1648" 
d="M335 -55l-88 59l119 177q-93 106 -145.5 256t-52.5 329q0 231 85 411t233 282.5t338 102.5q109 0 205.5 -35.5t175.5 -100.5l108 161l88 -59l-119 -177q93 -106 145.5 -256t52.5 -329q0 -230 -85 -410t-233 -282.5t-338 -102.5q-109 0 -205.5 35t-175.5 100zM824 84
q162 0 282 91t186.5 246t66.5 345q0 290 -146 483l-704 -1046q64 -56 143.5 -87.5t171.5 -31.5zM435 283l704 1046q-64 56 -143.5 87.5t-171.5 31.5q-160 0 -280.5 -91.5t-187.5 -246t-67 -344.5q0 -291 146 -483z" />
    <glyph glyph-name="uni00F9" unicode="&#xf9;" horiz-adv-x="1612" 
d="M1237 545v991h122v-1536h-122v249h-10q-54 -118 -174.5 -193.5t-284.5 -75.5q-226 0 -370.5 145.5t-144.5 397.5v1013h122v-1008q0 -192 117 -310.5t301 -118.5q120 0 221 54.5t162 154.5t61 237zM875 1755h-112l-302 442h146z" />
    <glyph glyph-name="uni00FA" unicode="&#xfa;" horiz-adv-x="1612" 
d="M1237 545v991h122v-1536h-122v249h-10q-54 -118 -174.5 -193.5t-284.5 -75.5q-226 0 -370.5 145.5t-144.5 397.5v1013h122v-1008q0 -192 117 -310.5t301 -118.5q120 0 221 54.5t162 154.5t61 237zM738 1755l268 442h146l-302 -442h-112z" />
    <glyph glyph-name="uni00FB" unicode="&#xfb;" horiz-adv-x="1612" 
d="M1237 545v991h122v-1536h-122v249h-10q-54 -118 -174.5 -193.5t-284.5 -75.5q-226 0 -370.5 145.5t-144.5 397.5v1013h122v-1008q0 -192 117 -310.5t301 -118.5q120 0 221 54.5t162 154.5t61 237zM538 1704l269 298l269 -298h126v10l-354 390h-82l-354 -390v-10h126z" />
    <glyph glyph-name="uni00FC" unicode="&#xfc;" horiz-adv-x="1612" 
d="M1237 545v991h122v-1536h-122v249h-10q-54 -118 -174.5 -193.5t-284.5 -75.5q-226 0 -370.5 145.5t-144.5 397.5v1013h122v-1008q0 -192 117 -310.5t301 -118.5q120 0 221 54.5t162 154.5t61 237zM583 1808q-38 0 -67 29t-29 67q0 41 29 68.5t67 27.5q41 0 68.5 -27.5
t27.5 -68.5q0 -38 -27.5 -67t-68.5 -29zM1031 1808q-38 0 -67 29t-29 67q0 41 29 68.5t67 27.5q41 0 68.5 -27.5t27.5 -68.5q0 -38 -27.5 -67t-68.5 -29z" />
    <glyph glyph-name="uni00FD" unicode="&#xfd;" horiz-adv-x="1504" 
d="M341 -604q-46 0 -91 10t-81 26l36 107q143 -54 243.5 -4t163.5 225l79 219l-563 1557h131l488 -1379h10l488 1379h131l-657 -1824q-118 -318 -378 -316zM684 1755l268 442h146l-302 -442h-112z" />
    <glyph glyph-name="uni00FE" unicode="&#xfe;" horiz-adv-x="1709" 
d="M248 2048h108v-801h23q19 23 47 73t79 104.5t138.5 93t224.5 38.5q212 0 363.5 -103.5t232.5 -282.5t81 -406q0 -235 -82.5 -416t-233 -283t-354.5 -102q-137 0 -225.5 39.5t-141.5 95t-82 107t-47 76.5h-23v-1v-856h-108v2624zM1421 768q0 178 -57.5 328.5t-173.5 241.5
t-291 91q-244 0 -382.5 -178.5t-137.5 -482.5q-1 -310 141 -493.5t379 -182.5q172 0 288 93.5t175 248t59 334.5z" />
    <glyph glyph-name="uni00FF" unicode="&#xff;" horiz-adv-x="1504" 
d="M341 -604q-46 0 -91 10t-81 26l36 107q143 -54 243.5 -4t163.5 225l79 219l-563 1557h131l488 -1379h10l488 1379h131l-657 -1824q-118 -318 -378 -316zM528 1808q-38 0 -67 29t-29 67q0 41 29 68.5t67 27.5q41 0 68.5 -27.5t27.5 -68.5q0 -38 -27.5 -67t-68.5 -29z
M976 1808q-38 0 -67 29t-29 67q0 41 29 68.5t67 27.5q41 0 68.5 -27.5t27.5 -68.5q0 -38 -27.5 -67t-68.5 -29z" />
    <glyph glyph-name="uni0100" unicode="&#x100;" horiz-adv-x="1792" 
d="M217 0h-132l739 2048h144l739 -2048h-132l-234 655h-890zM492 771h808l-399 1116h-10zM1266 2469v-109h-739v109h739z" />
    <glyph glyph-name="uni0101" unicode="&#x101;" horiz-adv-x="1545" 
d="M660 -33q-132 0 -243 53t-177.5 155t-66.5 248q0 192 139.5 295.5t446.5 140.5q117 14 209 28t144.5 42.5t52.5 87.5v64q0 167 -106 266.5t-292 99.5q-164 0 -277 -72.5t-158 -186.5l-115 43q66 166 217.5 247t329.5 81q137 0 256 -51.5t193 -159t74 -275.5v-1073h-122
v277h-9q-60 -129 -186.5 -219.5t-309.5 -90.5zM672 80q144 0 255.5 70.5t174.5 193.5t63 279v226q-48 -40 -164.5 -62.5t-229.5 -35.5q-252 -30 -364 -109.5t-112 -222.5q0 -157 108 -248t269 -91zM1150 1957v-109h-739v109h739z" />
    <glyph glyph-name="uni0102" unicode="&#x102;" horiz-adv-x="1792" 
d="M217 0h-132l739 2048h144l739 -2048h-132l-234 655h-890zM492 771h808l-399 1116h-10zM1068 2560h116q0 -124 -77 -199.5t-211 -75.5q-133 0 -210 75.5t-77 199.5h116q0 -79 42 -127t129 -48t129.5 48t42.5 127z" />
    <glyph glyph-name="uni0103" unicode="&#x103;" horiz-adv-x="1545" 
d="M660 -33q-132 0 -243 53t-177.5 155t-66.5 248q0 192 139.5 295.5t446.5 140.5q117 14 209 28t144.5 42.5t52.5 87.5v64q0 167 -106 266.5t-292 99.5q-164 0 -277 -72.5t-158 -186.5l-115 43q66 166 217.5 247t329.5 81q137 0 256 -51.5t193 -159t74 -275.5v-1073h-122
v277h-9q-60 -129 -186.5 -219.5t-309.5 -90.5zM672 80q144 0 255.5 70.5t174.5 193.5t63 279v226q-48 -40 -164.5 -62.5t-229.5 -35.5q-252 -30 -364 -109.5t-112 -222.5q0 -157 108 -248t269 -91zM952 2048h116q0 -124 -77 -199.5t-211 -75.5q-133 0 -210 75.5t-77 199.5
h116q0 -79 42 -127t129 -48t129.5 48t42.5 127z" />
    <glyph glyph-name="uni0104" unicode="&#x104;" horiz-adv-x="1792" 
d="M217 0h-132l739 2048h144l739 -2048h-132l-234 655h-890zM492 771h808l-399 1116h-10zM1524 -619q-118 2 -192.5 68.5t-59.5 195.5q17 105 120 206.5t345 211.5l-31 -63q-87 -80 -165.5 -169.5t-79.5 -193.5q1 -42 21 -67t88 -26q53 1 94.5 15.5t63.5 28.5l-3 -147
q-31 -19 -82 -38.5t-119 -21.5z" />
    <glyph glyph-name="uni0105" unicode="&#x105;" horiz-adv-x="1545" 
d="M660 -33q-132 0 -243 53t-177.5 155t-66.5 248q0 192 139.5 295.5t446.5 140.5q117 14 209 28t144.5 42.5t52.5 87.5v64q0 167 -106 266.5t-292 99.5q-164 0 -277 -72.5t-158 -186.5l-115 43q66 166 217.5 247t329.5 81q137 0 256 -51.5t193 -159t74 -275.5v-1073h-122
v277h-9q-60 -129 -186.5 -219.5t-309.5 -90.5zM672 80q144 0 255.5 70.5t174.5 193.5t63 279v226q-48 -40 -164.5 -62.5t-229.5 -35.5q-252 -30 -364 -109.5t-112 -222.5q0 -157 108 -248t269 -91zM1104 -619q-118 2 -192.5 68.5t-59.5 195.5q17 105 120 206.5t345 211.5
l-31 -63q-87 -80 -165.5 -169.5t-79.5 -193.5q1 -42 21 -67t88 -26q53 1 94.5 15.5t63.5 28.5l-3 -147q-31 -19 -82 -38.5t-119 -21.5z" />
    <glyph glyph-name="uni0106" unicode="&#x106;" horiz-adv-x="2040" 
d="M1856 1408h-128q-26 138 -114.5 263.5t-229 205t-325.5 79.5q-202 0 -371 -108t-271 -315.5t-102 -508.5q0 -303 102 -511t271 -314.5t371 -106.5q185 0 325.5 79t229 204.5t114.5 264.5h128q-29 -166 -130.5 -319t-269.5 -251t-397 -98q-255 0 -450.5 130.5t-306 367.5
t-110.5 554q0 318 110.5 554.5t306 367t450.5 130.5q229 0 397 -97t269.5 -250t130.5 -321zM990 2267l268 442h146l-302 -442h-112z" />
    <glyph glyph-name="uni0107" unicode="&#x107;" horiz-adv-x="1561" 
d="M829 -32q-196 0 -345 104t-232.5 283.5t-83.5 407.5t84 408t233 284t343 104q146 0 266.5 -60t200 -166.5t101.5 -248.5h-124q-29 155 -149.5 258t-293.5 103q-156 0 -278 -87.5t-192 -241t-70 -351.5q0 -195 68 -350t190 -244.5t282 -89.5q169 0 292.5 100t153.5 267
h124q-22 -142 -100 -250t-199 -169t-271 -61zM748 1755l268 442h146l-302 -442h-112z" />
    <glyph glyph-name="uni0108" unicode="&#x108;" horiz-adv-x="2040" 
d="M1856 1408h-128q-26 138 -114.5 263.5t-229 205t-325.5 79.5q-202 0 -371 -108t-271 -315.5t-102 -508.5q0 -303 102 -511t271 -314.5t371 -106.5q185 0 325.5 79t229 204.5t114.5 264.5h128q-29 -166 -130.5 -319t-269.5 -251t-397 -98q-255 0 -450.5 130.5t-306 367.5
t-110.5 554q0 318 110.5 554.5t306 367t450.5 130.5q229 0 397 -97t269.5 -250t130.5 -321zM790 2216l269 298l269 -298h126v10l-354 390h-82l-354 -390v-10h126z" />
    <glyph glyph-name="uni0109" unicode="&#x109;" horiz-adv-x="1561" 
d="M829 -32q-196 0 -345 104t-232.5 283.5t-83.5 407.5t84 408t233 284t343 104q146 0 266.5 -60t200 -166.5t101.5 -248.5h-124q-29 155 -149.5 258t-293.5 103q-156 0 -278 -87.5t-192 -241t-70 -351.5q0 -195 68 -350t190 -244.5t282 -89.5q169 0 292.5 100t153.5 267
h124q-22 -142 -100 -250t-199 -169t-271 -61zM547 1704l269 298l269 -298h126v10l-354 390h-82l-354 -390v-10h126z" />
    <glyph glyph-name="uni010A" unicode="&#x10a;" horiz-adv-x="2040" 
d="M1856 1408h-128q-26 138 -114.5 263.5t-229 205t-325.5 79.5q-202 0 -371 -108t-271 -315.5t-102 -508.5q0 -303 102 -511t271 -314.5t371 -106.5q185 0 325.5 79t229 204.5t114.5 264.5h128q-29 -166 -130.5 -319t-269.5 -251t-397 -98q-255 0 -450.5 130.5t-306 367.5
t-110.5 554q0 318 110.5 554.5t306 367t450.5 130.5q229 0 397 -97t269.5 -250t130.5 -321zM1059 2320q-40 0 -69.5 28t-29.5 68t29.5 68t69.5 28q41 0 69.5 -28t28.5 -68t-28.5 -68t-69.5 -28z" />
    <glyph glyph-name="uni010B" unicode="&#x10b;" horiz-adv-x="1561" 
d="M829 -32q-196 0 -345 104t-232.5 283.5t-83.5 407.5t84 408t233 284t343 104q146 0 266.5 -60t200 -166.5t101.5 -248.5h-124q-29 155 -149.5 258t-293.5 103q-156 0 -278 -87.5t-192 -241t-70 -351.5q0 -195 68 -350t190 -244.5t282 -89.5q169 0 292.5 100t153.5 267
h124q-22 -142 -100 -250t-199 -169t-271 -61zM816 1808q-40 0 -69.5 28t-29.5 68t29.5 68t69.5 28q41 0 69.5 -28t28.5 -68t-28.5 -68t-69.5 -28z" />
    <glyph glyph-name="uni010C" unicode="&#x10c;" horiz-adv-x="2040" 
d="M1856 1408h-128q-26 138 -114.5 263.5t-229 205t-325.5 79.5q-202 0 -371 -108t-271 -315.5t-102 -508.5q0 -303 102 -511t271 -314.5t371 -106.5q185 0 325.5 79t229 204.5t114.5 264.5h128q-29 -166 -130.5 -319t-269.5 -251t-397 -98q-255 0 -450.5 130.5t-306 367.5
t-110.5 554q0 318 110.5 554.5t306 367t450.5 130.5q229 0 397 -97t269.5 -250t130.5 -321zM790 2637l269 -298l269 298h126v-10l-354 -390h-82l-354 390v10h126z" />
    <glyph glyph-name="uni010D" unicode="&#x10d;" horiz-adv-x="1561" 
d="M829 -32q-196 0 -345 104t-232.5 283.5t-83.5 407.5t84 408t233 284t343 104q146 0 266.5 -60t200 -166.5t101.5 -248.5h-124q-29 155 -149.5 258t-293.5 103q-156 0 -278 -87.5t-192 -241t-70 -351.5q0 -195 68 -350t190 -244.5t282 -89.5q169 0 292.5 100t153.5 267
h124q-22 -142 -100 -250t-199 -169t-271 -61zM547 2125l269 -298l269 298h126v-10l-354 -390h-82l-354 390v10h126z" />
    <glyph glyph-name="uni010E" unicode="&#x10e;" horiz-adv-x="2016" 
d="M864 0h-568v2048h612q288 0 493 -121.5t314.5 -349.5t108.5 -546q-1 -487 -252 -759t-708 -272zM421 116h438q411 0 627.5 243t214.5 672q-1 422 -206.5 661.5t-591.5 239.5h-482v-1816zM592 2637l269 -298l269 298h126v-10l-354 -390h-82l-354 390v10h126z" />
    <glyph glyph-name="uni010F" unicode="&#x10f;" horiz-adv-x="1839" 
d="M777 -32q-185 0 -323 102t-213.5 282t-75.5 412t76.5 411t214.5 281.5t322 102.5q197 0 319.5 -108.5t175.5 -257.5h12v855h121v-2048h-118v335h-15q-55 -148 -177 -257.5t-319 -109.5zM788 81q156 0 267.5 89t171 244t59.5 351t-59.5 349.5t-171 242t-267.5 88.5
q-158 0 -270.5 -89.5t-172 -243.5t-59.5 -347t59.5 -348t172 -245.5t270.5 -90.5zM1846 1989l-14 -111q-19 -141 -57.5 -302.5t-88.5 -275.5l-102 13q32 116 66 251t58 308l14 117h124z" />
    <glyph glyph-name="uni0110" unicode="&#x110;" horiz-adv-x="2016" 
d="M864 0h-568v2048h612q288 0 493 -121.5t314.5 -349.5t108.5 -546q-1 -487 -252 -759t-708 -272zM421 116h438q411 0 627.5 243t214.5 672q-1 422 -206.5 661.5t-591.5 239.5h-482v-1816zM-41 993v104h800v-104h-800z" />
    <glyph glyph-name="uni0111" unicode="&#x111;" horiz-adv-x="1705" 
d="M780 -32q-185 0 -323 102t-213.5 282t-75.5 412t76.5 411t214.5 281.5t322 102.5q197 0 319.5 -108.5t175.5 -257.5h12v855h121v-2048h-118v335h-15q-55 -148 -177 -257.5t-319 -109.5zM791 81q156 0 267.5 89t171 244t59.5 351t-59.5 349.5t-171 242t-267.5 88.5
q-158 0 -270.5 -89.5t-172 -243.5t-59.5 -347t59.5 -348t172 -245.5t270.5 -90.5zM861 1708v104h800v-104h-800z" />
    <glyph glyph-name="uni0112" unicode="&#x112;" horiz-adv-x="1657" 
d="M296 0v2048h1140v-116h-1015v-849h954v-116h-954v-851h1039v-116h-1164zM1239 2469v-109h-739v109h739z" />
    <glyph glyph-name="uni0113" unicode="&#x113;" horiz-adv-x="1629" 
d="M852 -32q-208 0 -362 103t-238 282t-84 408q0 230 84.5 410t232.5 284t338 104q172 0 317 -90.5t233 -257t88 -394.5v-76h-1172q3 -189 70.5 -338t193 -235.5t299.5 -86.5q125 0 214.5 42.5t147.5 103.5t86 118l111 -45q-35 -77 -108.5 -154t-186 -127.5t-264.5 -50.5z
M291 852h1048q0 167 -68 301t-185 213t-263 79t-261.5 -78.5t-187 -213t-83.5 -301.5zM1186 1957v-109h-739v109h739z" />
    <glyph glyph-name="uni0114" unicode="&#x114;" horiz-adv-x="1657" 
d="M296 0v2048h1140v-116h-1015v-849h954v-116h-954v-851h1039v-116h-1164zM1041 2560h116q0 -124 -77 -199.5t-211 -75.5q-133 0 -210 75.5t-77 199.5h116q0 -79 42 -127t129 -48t129.5 48t42.5 127z" />
    <glyph glyph-name="uni0115" unicode="&#x115;" horiz-adv-x="1629" 
d="M852 -32q-208 0 -362 103t-238 282t-84 408q0 230 84.5 410t232.5 284t338 104q172 0 317 -90.5t233 -257t88 -394.5v-76h-1172q3 -189 70.5 -338t193 -235.5t299.5 -86.5q125 0 214.5 42.5t147.5 103.5t86 118l111 -45q-35 -77 -108.5 -154t-186 -127.5t-264.5 -50.5z
M291 852h1048q0 167 -68 301t-185 213t-263 79t-261.5 -78.5t-187 -213t-83.5 -301.5zM988 2048h116q0 -124 -77 -199.5t-211 -75.5q-133 0 -210 75.5t-77 199.5h116q0 -79 42 -127t129 -48t129.5 48t42.5 127z" />
    <glyph glyph-name="uni0116" unicode="&#x116;" horiz-adv-x="1657" 
d="M296 0v2048h1140v-116h-1015v-849h954v-116h-954v-851h1039v-116h-1164zM870 2320q-40 0 -69.5 28t-29.5 68t29.5 68t69.5 28q41 0 69.5 -28t28.5 -68t-28.5 -68t-69.5 -28z" />
    <glyph glyph-name="uni0117" unicode="&#x117;" horiz-adv-x="1629" 
d="M852 -32q-208 0 -362 103t-238 282t-84 408q0 230 84.5 410t232.5 284t338 104q172 0 317 -90.5t233 -257t88 -394.5v-76h-1172q3 -189 70.5 -338t193 -235.5t299.5 -86.5q125 0 214.5 42.5t147.5 103.5t86 118l111 -45q-35 -77 -108.5 -154t-186 -127.5t-264.5 -50.5z
M291 852h1048q0 167 -68 301t-185 213t-263 79t-261.5 -78.5t-187 -213t-83.5 -301.5zM816 1808q-40 0 -69.5 28t-29.5 68t29.5 68t69.5 28q41 0 69.5 -28t28.5 -68t-28.5 -68t-69.5 -28z" />
    <glyph glyph-name="uni0118" unicode="&#x118;" horiz-adv-x="1657" 
d="M296 0v2048h1140v-116h-1015v-849h954v-116h-954v-851h1039v-116h-1164zM1278 -619q-118 2 -192.5 68.5t-59.5 195.5q17 105 120 206.5t345 211.5l-31 -63q-87 -80 -165.5 -169.5t-79.5 -193.5q1 -42 21 -67t88 -26q53 1 94.5 15.5t63.5 28.5l-3 -147q-31 -19 -82 -38.5
t-119 -21.5z" />
    <glyph glyph-name="uni0119" unicode="&#x119;" horiz-adv-x="1629" 
d="M852 -32q-208 0 -362 103t-238 282t-84 408q0 230 84.5 410t232.5 284t338 104q172 0 317 -90.5t233 -257t88 -394.5v-76h-1172q3 -189 70.5 -338t193 -235.5t299.5 -86.5q125 0 214.5 42.5t147.5 103.5t86 118l111 -45q-35 -77 -108.5 -154t-186 -127.5t-264.5 -50.5z
M291 852h1048q0 167 -68 301t-185 213t-263 79t-261.5 -78.5t-187 -213t-83.5 -301.5zM852 -619q-118 2 -192.5 68.5t-59.5 195.5q17 105 120 206.5t345 211.5l-31 -63q-87 -80 -165.5 -169.5t-79.5 -193.5q1 -42 21 -67t88 -26q53 1 94.5 15.5t63.5 28.5l-3 -147
q-31 -19 -82 -38.5t-119 -21.5z" />
    <glyph glyph-name="uni011A" unicode="&#x11a;" horiz-adv-x="1657" 
d="M296 0v2048h1140v-116h-1015v-849h954v-116h-954v-851h1039v-116h-1164zM600 2637l269 -298l269 298h126v-10l-354 -390h-82l-354 390v10h126z" />
    <glyph glyph-name="uni011B" unicode="&#x11b;" horiz-adv-x="1629" 
d="M852 -32q-208 0 -362 103t-238 282t-84 408q0 230 84.5 410t232.5 284t338 104q172 0 317 -90.5t233 -257t88 -394.5v-76h-1172q3 -189 70.5 -338t193 -235.5t299.5 -86.5q125 0 214.5 42.5t147.5 103.5t86 118l111 -45q-35 -77 -108.5 -154t-186 -127.5t-264.5 -50.5z
M291 852h1048q0 167 -68 301t-185 213t-263 79t-261.5 -78.5t-187 -213t-83.5 -301.5zM547 2125l269 -298l269 298h126v-10l-354 -390h-82l-354 390v10h126z" />
    <glyph glyph-name="uni011C" unicode="&#x11c;" horiz-adv-x="2084" 
d="M1731 1408q-31 138 -118 263.5t-227 205t-330 79.5q-217 0 -384.5 -114t-262 -323t-94.5 -495q0 -283 94 -492.5t263.5 -324.5t394.5 -115q198 0 352 90t242 258.5t90 403.5h-652v116h774v-116q0 -271 -104 -466.5t-285.5 -300.5t-416.5 -105q-264 0 -461 131
t-305.5 367.5t-108.5 553.5q0 318 109 554.5t303.5 367t451.5 130.5q232 0 401 -99t271 -252t131 -317h-128zM779 2216l269 298l269 -298h126v10l-354 390h-82l-354 -390v-10h126z" />
    <glyph glyph-name="uni011D" unicode="&#x11d;" horiz-adv-x="1668" 
d="M807 -608q-215 0 -362 83t-210 225l102 60q50 -112 167.5 -184t302.5 -72q222 0 351.5 114.5t129.5 350.5v382h-12q-53 -149 -180 -246t-316 -97q-182 0 -320 94t-215 265t-77 401q0 231 75.5 409.5t213.5 280t324 101.5q200 0 320.5 -108.5t175.5 -257.5h14v343h118
v-1572q0 -289 -166.5 -430.5t-435.5 -141.5zM791 121q231 0 364.5 174t133.5 474q0 194 -59.5 347t-170.5 241t-268 88q-159 0 -271.5 -89.5t-171.5 -242.5t-59 -344q0 -192 60 -338t172.5 -228t269.5 -82zM564 1704l269 298l269 -298h126v10l-354 390h-82l-354 -390v-10
h126z" />
    <glyph glyph-name="uni011E" unicode="&#x11e;" horiz-adv-x="2084" 
d="M1731 1408q-31 138 -118 263.5t-227 205t-330 79.5q-217 0 -384.5 -114t-262 -323t-94.5 -495q0 -283 94 -492.5t263.5 -324.5t394.5 -115q198 0 352 90t242 258.5t90 403.5h-652v116h774v-116q0 -271 -104 -466.5t-285.5 -300.5t-416.5 -105q-264 0 -461 131
t-305.5 367.5t-108.5 553.5q0 318 109 554.5t303.5 367t451.5 130.5q232 0 401 -99t271 -252t131 -317h-128zM1220 2560h116q0 -124 -77 -199.5t-211 -75.5q-133 0 -210 75.5t-77 199.5h116q0 -79 42 -127t129 -48t129.5 48t42.5 127z" />
    <glyph glyph-name="uni011F" unicode="&#x11f;" horiz-adv-x="1668" 
d="M807 -608q-215 0 -362 83t-210 225l102 60q50 -112 167.5 -184t302.5 -72q222 0 351.5 114.5t129.5 350.5v382h-12q-53 -149 -180 -246t-316 -97q-182 0 -320 94t-215 265t-77 401q0 231 75.5 409.5t213.5 280t324 101.5q200 0 320.5 -108.5t175.5 -257.5h14v343h118
v-1572q0 -289 -166.5 -430.5t-435.5 -141.5zM791 121q231 0 364.5 174t133.5 474q0 194 -59.5 347t-170.5 241t-268 88q-159 0 -271.5 -89.5t-171.5 -242.5t-59 -344q0 -192 60 -338t172.5 -228t269.5 -82zM1005 2048h116q0 -124 -77 -199.5t-211 -75.5q-133 0 -210 75.5
t-77 199.5h116q0 -79 42 -127t129 -48t129.5 48t42.5 127z" />
    <glyph glyph-name="uni0120" unicode="&#x120;" horiz-adv-x="2084" 
d="M1731 1408q-31 138 -118 263.5t-227 205t-330 79.5q-217 0 -384.5 -114t-262 -323t-94.5 -495q0 -283 94 -492.5t263.5 -324.5t394.5 -115q198 0 352 90t242 258.5t90 403.5h-652v116h774v-116q0 -271 -104 -466.5t-285.5 -300.5t-416.5 -105q-264 0 -461 131
t-305.5 367.5t-108.5 553.5q0 318 109 554.5t303.5 367t451.5 130.5q232 0 401 -99t271 -252t131 -317h-128zM1048 2320q-40 0 -69.5 28t-29.5 68t29.5 68t69.5 28q41 0 69.5 -28t28.5 -68t-28.5 -68t-69.5 -28z" />
    <glyph glyph-name="uni0121" unicode="&#x121;" horiz-adv-x="1668" 
d="M807 -608q-215 0 -362 83t-210 225l102 60q50 -112 167.5 -184t302.5 -72q222 0 351.5 114.5t129.5 350.5v382h-12q-53 -149 -180 -246t-316 -97q-182 0 -320 94t-215 265t-77 401q0 231 75.5 409.5t213.5 280t324 101.5q200 0 320.5 -108.5t175.5 -257.5h14v343h118
v-1572q0 -289 -166.5 -430.5t-435.5 -141.5zM791 121q231 0 364.5 174t133.5 474q0 194 -59.5 347t-170.5 241t-268 88q-159 0 -271.5 -89.5t-171.5 -242.5t-59 -344q0 -192 60 -338t172.5 -228t269.5 -82zM834 1808q-40 0 -69.5 28t-29.5 68t29.5 68t69.5 28q41 0 69.5 -28
t28.5 -68t-28.5 -68t-69.5 -28z" />
    <glyph glyph-name="uni0122" unicode="&#x122;" horiz-adv-x="2084" 
d="M1731 1408q-31 138 -118 263.5t-227 205t-330 79.5q-217 0 -384.5 -114t-262 -323t-94.5 -495q0 -283 94 -492.5t263.5 -324.5t394.5 -115q198 0 352 90t242 258.5t90 403.5h-652v116h774v-116q0 -271 -104 -466.5t-285.5 -300.5t-416.5 -105q-264 0 -461 131
t-305.5 367.5t-108.5 553.5q0 318 109 554.5t303.5 367t451.5 130.5q232 0 401 -99t271 -252t131 -317h-128zM1124 -195l-14 -111q-19 -141 -57.5 -302.5t-88.5 -275.5l-102 13q32 116 66 251t58 308l14 117h124z" />
    <glyph glyph-name="uni0123" unicode="&#x123;" horiz-adv-x="1668" 
d="M807 -608q-215 0 -362 83t-210 225l102 60q50 -112 167.5 -184t302.5 -72q222 0 351.5 114.5t129.5 350.5v382h-12q-53 -149 -180 -246t-316 -97q-182 0 -320 94t-215 265t-77 401q0 231 75.5 409.5t213.5 280t324 101.5q200 0 320.5 -108.5t175.5 -257.5h14v343h118
v-1572q0 -289 -166.5 -430.5t-435.5 -141.5zM791 121q231 0 364.5 174t133.5 474q0 194 -59.5 347t-170.5 241t-268 88q-159 0 -271.5 -89.5t-171.5 -242.5t-59 -344q0 -192 60 -338t172.5 -228t269.5 -82zM705 1732v168q0 70 36 151.5t84 152t84 108.5l116 -135
q-56 -101 -66.5 -160t-9.5 -127l3 -158h-247z" />
    <glyph glyph-name="uni0124" unicode="&#x124;" horiz-adv-x="2076" 
d="M296 0v2048h125v-965h1234v965h125v-2048h-125v967h-1234v-967h-125zM772 2217l269 298l269 -298h126v10l-354 390h-82l-354 -390v-10h126z" />
    <glyph glyph-name="uni0125" unicode="&#x125;" horiz-adv-x="1621" 
d="M375 996v-996h-122v2048h122v-755h12q54 120 172.5 191.5t284.5 71.5q233 0 378.5 -145t145.5 -398v-1013h-121v1008q0 197 -117 316t-309 119q-194 0 -320 -123t-126 -324zM46 2216l269 298l269 -298h126v10l-354 390h-82l-354 -390v-10h126z" />
    <glyph glyph-name="uni0126" unicode="&#x126;" horiz-adv-x="2125" 
d="M1967 1565v-186h-159v-1379h-125v967h-1234v-967h-125v1379h-164v186h164v483h125v-483h1234v483h125v-483h159zM1683 1379h-1234v-296h1234v296z" />
    <glyph glyph-name="uni0127" unicode="&#x127;" horiz-adv-x="1621" 
d="M375 996v-996h-122v2048h122v-755h12q54 120 172.5 191.5t284.5 71.5q233 0 378.5 -145t145.5 -398v-1013h-121v1008q0 197 -117 316t-309 119q-194 0 -320 -123t-126 -324zM-85 1759v104h800v-104h-800z" />
    <glyph glyph-name="uni0128" unicode="&#x128;" horiz-adv-x="1072" 
d="M598 2048v-2048h-125v2048h125zM170 2288l-104 8q9 113 87.5 185t189.5 72q65 0 113 -23t89 -53t83.5 -53t97.5 -23q65 0 116.5 43.5t61.5 111.5l103 -16q-14 -113 -93.5 -181t-183.5 -68q-66 0 -111.5 23t-84.5 53t-82 53t-105 23q-71 0 -121 -44t-56 -111z" />
    <glyph glyph-name="uni0129" unicode="&#x129;" horiz-adv-x="705" 
d="M55 1776l-104 8q9 113 87.5 185t189.5 72q65 0 113 -23t89 -53t83.5 -53t97.5 -23q65 0 116.5 43.5t61.5 111.5l103 -16q-14 -113 -93.5 -181t-183.5 -68q-66 0 -111.5 23t-84.5 53t-82 53t-105 23q-71 0 -121 -44t-56 -111zM300 0v1536h121v-1536h-121z" />
    <glyph glyph-name="uni012A" unicode="&#x12a;" horiz-adv-x="717" 
d="M421 2048v-2048h-125v2048h125zM728 2469v-109h-739v109h739z" />
    <glyph glyph-name="uni012B" unicode="&#x12b;" horiz-adv-x="639" 
d="M259 0v1536h121v-1536h-121zM690 1957v-109h-739v109h739z" />
    <glyph glyph-name="uni012C" unicode="&#x12c;" horiz-adv-x="717" 
d="M421 2048v-2048h-125v2048h125zM531 2560h116q0 -124 -77 -199.5t-211 -75.5q-133 0 -210 75.5t-77 199.5h116q0 -79 42 -127t129 -48t129.5 48t42.5 127z" />
    <glyph glyph-name="uni012D" unicode="&#x12d;" horiz-adv-x="639" 
d="M259 0v1536h121v-1536h-121zM492 2048h116q0 -124 -77 -199.5t-211 -75.5q-133 0 -210 75.5t-77 199.5h116q0 -79 42 -127t129 -48t129.5 48t42.5 127z" />
    <glyph glyph-name="uni012E" unicode="&#x12e;" horiz-adv-x="719" 
d="M418 2048v-2048h-125v2048h125zM234 -619q-118 2 -192.5 68.5t-59.5 195.5q17 105 120 206.5t345 211.5l-31 -63q-87 -80 -165.5 -169.5t-79.5 -193.5q1 -42 21 -67t88 -26q53 1 94.5 15.5t63.5 28.5l-3 -147q-31 -19 -82 -38.5t-119 -21.5z" />
    <glyph glyph-name="uni012F" unicode="&#x12f;" horiz-adv-x="592" 
d="M181 -619q-118 2 -192.5 68.5t-59.5 195.5q17 105 120 206.5t345 211.5l-31 -63q-87 -80 -165.5 -169.5t-79.5 -193.5q1 -42 21 -67t88 -26q53 1 94.5 15.5t63.5 28.5l-3 -147q-31 -19 -82 -38.5t-119 -21.5zM256 0v1536h121v-1536h-121zM299 1808q-40 0 -69.5 28
t-29.5 68t29.5 68t69.5 28q41 0 69.5 -28t28.5 -68t-28.5 -68t-69.5 -28z" />
    <glyph glyph-name="uni0130" unicode="&#x130;" horiz-adv-x="717" 
d="M421 2048v-2048h-125v2048h125zM359 2320q-40 0 -69.5 28t-29.5 68t29.5 68t69.5 28q41 0 69.5 -28t28.5 -68t-28.5 -68t-69.5 -28z" />
    <glyph glyph-name="uni0131" unicode="&#x131;" horiz-adv-x="639" 
d="M259 0v1536h121v-1536h-121z" />
    <glyph glyph-name="uni0132" unicode="&#x132;" horiz-adv-x="2203" 
d="M421 2048v-2048h-125v2048h125zM1781 2048h125v-1491q0 -204 -70.5 -333t-189 -190.5t-265.5 -61.5q-150 0 -268.5 56.5t-187 156.5t-68.5 231h124q-1 -143 114 -235.5t286 -92.5q111 0 201.5 47t144.5 150t54 272v1491z" />
    <glyph glyph-name="uni0133" unicode="&#x133;" horiz-adv-x="1277" 
d="M259 0v1536h121v-1536h-121zM320 1808q-40 0 -69.5 28t-29.5 68t29.5 68t69.5 28q41 0 69.5 -28t28.5 -68t-28.5 -68t-69.5 -28zM898 1536h121v-1723q0 -178 -106.5 -283.5t-274.5 -105.5q-8 0 -17 0.5t-21 2.5l6 113h30q113 0 187.5 72.5t74.5 200.5v1723zM958 1808
q-40 0 -69.5 28t-29.5 68t29.5 68t69.5 28q41 0 69.5 -28t28.5 -68t-28.5 -68t-69.5 -28z" />
    <glyph glyph-name="uni0134" unicode="&#x134;" horiz-adv-x="1485" 
d="M1064 2048h125v-1491q0 -204 -70.5 -333t-189 -190.5t-265.5 -61.5q-150 0 -268.5 56.5t-187 156.5t-68.5 231h124q-1 -143 114 -235.5t286 -92.5q111 0 201.5 47t144.5 150t54 272v1491zM858 2216l269 298l269 -298h126v10l-354 390h-82l-354 -390v-10h126z" />
    <glyph glyph-name="uni0135" unicode="&#x135;" horiz-adv-x="639" 
d="M259 1536h121v-1723q0 -178 -106.5 -283.5t-274.5 -105.5q-8 0 -17 0.5t-21 2.5l6 113h30q113 0 187.5 72.5t74.5 200.5v1723zM50 1704l269 298l269 -298h126v10l-354 390h-82l-354 -390v-10h126z" />
    <glyph glyph-name="uni0136" unicode="&#x136;" horiz-adv-x="1769" 
d="M296 0v2048h125v-1189h14l1080 1189h166l-889 -969l881 -1079h-156l-805 989l-291 -322v-667h-125zM966 -195l-14 -111q-19 -141 -57.5 -302.5t-88.5 -275.5l-102 13q32 116 66 251t58 308l14 117h124z" />
    <glyph glyph-name="uni0137" unicode="&#x137;" horiz-adv-x="1425" 
d="M253 0v2048h122v-1273h14l768 761h159l-665 -660l697 -876h-156l-630 796l-187 -181v-615h-122zM835 -195l-14 -111q-19 -141 -57.5 -302.5t-88.5 -275.5l-102 13q32 116 66 251t58 308l14 117h124z" />
    <glyph glyph-name="uni0138" unicode="&#x138;" horiz-adv-x="1701" 
d="M444 1488v-672h104l19 20l17 63l21 -22l574 611h198l-680 -709l738 -779h-220l-670 689h-101v-689h-177v1488h177z" />
    <glyph glyph-name="uni0139" unicode="&#x139;" horiz-adv-x="1584" 
d="M296 0v2048h125v-1932h1000v-116h-1125zM290 2267l268 442h146l-302 -442h-112z" />
    <glyph glyph-name="uni013A" unicode="&#x13a;" horiz-adv-x="628" 
d="M375 2048v-2048h-122v2048h122zM245 2267l268 442h146l-302 -442h-112z" />
    <glyph glyph-name="uni013B" unicode="&#x13b;" horiz-adv-x="1584" 
d="M296 0v2048h125v-1932h1000v-116h-1125zM936 -195l-14 -111q-19 -141 -57.5 -302.5t-88.5 -275.5l-102 13q32 116 66 251t58 308l14 117h124z" />
    <glyph glyph-name="uni013C" unicode="&#x13c;" horiz-adv-x="628" 
d="M375 2048v-2048h-122v2048h122zM392 -195l-14 -111q-19 -141 -57.5 -302.5t-88.5 -275.5l-102 13q32 116 66 251t58 308l14 117h124z" />
    <glyph glyph-name="uni013D" unicode="&#x13d;" horiz-adv-x="1575" 
d="M296 0v2048h125v-1932h1000v-116h-1125zM963 1989l-14 -111q-19 -141 -57.5 -302.5t-88.5 -275.5l-102 13q32 116 66 251t58 308l14 117h124z" />
    <glyph glyph-name="uni013E" unicode="&#x13e;" horiz-adv-x="688" 
d="M367 2048v-2048h-122v2048h122zM695 1989l-14 -111q-19 -141 -57.5 -302.5t-88.5 -275.5l-102 13q32 116 66 251t58 308l14 117h124z" />
    <glyph glyph-name="uni013F" unicode="&#x13f;" horiz-adv-x="1552" 
d="M291 0v2048h125v-1932h1000v-116h-1125zM927 980q-40 0 -69.5 28t-29.5 68t29.5 68t69.5 28q41 0 69.5 -28t28.5 -68t-28.5 -68t-69.5 -28z" />
    <glyph glyph-name="uni0140" unicode="&#x140;" horiz-adv-x="707" 
d="M367 2048v-2048h-122v2048h122zM602 1011q-40 0 -69.5 28t-29.5 68t29.5 68t69.5 28q41 0 69.5 -28t28.5 -68t-28.5 -68t-69.5 -28z" />
    <glyph glyph-name="uni0141" unicode="&#x141;" horiz-adv-x="1541" 
d="M808 1251v-140l-446 -155v-840h1000v-116h-1125v912l-164 -57v142l164 57v994h125v-951z" />
    <glyph glyph-name="uni0142" unicode="&#x142;" horiz-adv-x="603" 
d="M595 1245v-136l-220 -95v-1014h-122v962l-246 -106v136l246 106v950h122v-898z" />
    <glyph glyph-name="uni0143" unicode="&#x143;" horiz-adv-x="2157" 
d="M1861 2048v-2048h-122l-1306 1821h-12v-1821h-125v2048h123l1306 -1823h12v1823h124zM1010 2267l268 442h146l-302 -442h-112z" />
    <glyph glyph-name="uni0144" unicode="&#x144;" horiz-adv-x="1616" 
d="M375 996v-996h-122v1536h119v-243h12q54 119 173 191t283 72q232 0 377.5 -145.5t145.5 -397.5v-1013h-122v1008q0 197 -116.5 316t-307.5 119q-192 0 -317 -123t-125 -324zM742 1755l268 442h146l-302 -442h-112z" />
    <glyph glyph-name="uni0145" unicode="&#x145;" horiz-adv-x="2157" 
d="M1861 2048v-2048h-122l-1306 1821h-12v-1821h-125v2048h123l1306 -1823h12v1823h124zM1156 -195l-14 -111q-19 -141 -57.5 -302.5t-88.5 -275.5l-102 13q32 116 66 251t58 308l14 117h124z" />
    <glyph glyph-name="uni0146" unicode="&#x146;" horiz-adv-x="1616" 
d="M375 996v-996h-122v1536h119v-243h12q54 119 173 191t283 72q232 0 377.5 -145.5t145.5 -397.5v-1013h-122v1008q0 197 -116.5 316t-307.5 119q-192 0 -317 -123t-125 -324zM886 -195l-14 -111q-19 -141 -57.5 -302.5t-88.5 -275.5l-102 13q32 116 66 251t58 308l14 117
h124z" />
    <glyph glyph-name="uni0147" unicode="&#x147;" horiz-adv-x="2157" 
d="M1861 2048v-2048h-122l-1306 1821h-12v-1821h-125v2048h123l1306 -1823h12v1823h124zM810 2637l269 -298l269 298h126v-10l-354 -390h-82l-354 390v10h126z" />
    <glyph glyph-name="uni0148" unicode="&#x148;" horiz-adv-x="1616" 
d="M375 996v-996h-122v1536h119v-243h12q54 119 173 191t283 72q232 0 377.5 -145.5t145.5 -397.5v-1013h-122v1008q0 197 -116.5 316t-307.5 119q-192 0 -317 -123t-125 -324zM542 2125l269 -298l269 298h126v-10l-354 -390h-82l-354 390v10h126z" />
    <glyph glyph-name="uni014A" unicode="&#x14a;" horiz-adv-x="2153" 
d="M1709 0h30l-1306 1821h-12v-1821h-125v2048h123l1306 -1823h12v1823h124v-2048h-2v-220q0 -89 -42 -165.5t-106 -123t-130 -46.5h-18.5t-18.5 -1q-25 0 -47 0.5t-38 4.5v127q5 -1 11.5 -2t16.5 -1q89 0 155.5 42.5t66.5 176.5v208z" />
    <glyph glyph-name="uni014B" unicode="&#x14b;" horiz-adv-x="1561" 
d="M1220 0h21v1008q0 197 -116.5 316t-307.5 119q-192 0 -317 -123t-125 -324v-996h-122v1536h119v-243h12q54 119 173 191t283 72q232 0 377.5 -145.5t145.5 -397.5v-1013h-32v-217q-1 -160 -93.5 -253t-208.5 -93h-15q-20 0 -39.5 0.5t-27.5 6.5l-19 104q5 -1 18 -2t23 -1
q103 0 177 48t74 190v217z" />
    <glyph glyph-name="uni014C" unicode="&#x14c;" horiz-adv-x="2117" 
d="M1925 1024q0 -316 -110 -553t-305.5 -368t-450.5 -131q-256 0 -451.5 131.5t-305.5 368t-110 552.5q0 317 110 553.5t305.5 367.5t451.5 131q255 0 450.5 -131t305.5 -367.5t110 -553.5zM1803 1024q0 285 -96 494t-263.5 323.5t-384.5 114.5t-385 -114t-263.5 -323
t-95.5 -495q0 -283 95 -492.5t262.5 -324.5t386.5 -115q217 0 385 114.5t263.5 324t95.5 493.5zM1428 2469v-109h-739v109h739z" />
    <glyph glyph-name="uni014D" unicode="&#x14d;" horiz-adv-x="1648" 
d="M824 -32q-190 0 -338 102.5t-233 282.5t-85 410q0 231 85 411t233 282.5t338 102.5t338 -103t233 -282.5t85 -410.5q0 -230 -85 -410t-233 -282.5t-338 -102.5zM824 81q162 0 282 91t186.5 246t66.5 345t-66.5 344.5t-187 246t-281.5 91.5q-160 0 -280.5 -91.5
t-187.5 -246t-67 -344.5t66.5 -345t187 -246t281.5 -91zM1194 1957v-109h-739v109h739z" />
    <glyph glyph-name="uni014E" unicode="&#x14e;" horiz-adv-x="2117" 
d="M1925 1024q0 -316 -110 -553t-305.5 -368t-450.5 -131q-256 0 -451.5 131.5t-305.5 368t-110 552.5q0 317 110 553.5t305.5 367.5t451.5 131q255 0 450.5 -131t305.5 -367.5t110 -553.5zM1803 1024q0 285 -96 494t-263.5 323.5t-384.5 114.5t-385 -114t-263.5 -323
t-95.5 -495q0 -283 95 -492.5t262.5 -324.5t386.5 -115q217 0 385 114.5t263.5 324t95.5 493.5zM1231 2560h116q0 -124 -77 -199.5t-211 -75.5q-133 0 -210 75.5t-77 199.5h116q0 -79 42 -127t129 -48t129.5 48t42.5 127z" />
    <glyph glyph-name="uni014F" unicode="&#x14f;" horiz-adv-x="1648" 
d="M824 -32q-190 0 -338 102.5t-233 282.5t-85 410q0 231 85 411t233 282.5t338 102.5t338 -103t233 -282.5t85 -410.5q0 -230 -85 -410t-233 -282.5t-338 -102.5zM824 81q162 0 282 91t186.5 246t66.5 345t-66.5 344.5t-187 246t-281.5 91.5q-160 0 -280.5 -91.5
t-187.5 -246t-67 -344.5t66.5 -345t187 -246t281.5 -91zM996 2048h116q0 -124 -77 -199.5t-211 -75.5q-133 0 -210 75.5t-77 199.5h116q0 -79 42 -127t129 -48t129.5 48t42.5 127z" />
    <glyph glyph-name="uni0150" unicode="&#x150;" horiz-adv-x="2117" 
d="M1925 1024q0 -316 -110 -553t-305.5 -368t-450.5 -131q-256 0 -451.5 131.5t-305.5 368t-110 552.5q0 317 110 553.5t305.5 367.5t451.5 131q255 0 450.5 -131t305.5 -367.5t110 -553.5zM1803 1024q0 285 -96 494t-263.5 323.5t-384.5 114.5t-385 -114t-263.5 -323
t-95.5 -495q0 -283 95 -492.5t262.5 -324.5t386.5 -115q217 0 385 114.5t263.5 324t95.5 493.5zM1111 2211l300 429h200l-356 -429h-144zM765 2211l195 429h196l-277 -429h-114z" />
    <glyph glyph-name="uni0151" unicode="&#x151;" horiz-adv-x="1648" 
d="M824 -32q-190 0 -338 102.5t-233 282.5t-85 410q0 231 85 411t233 282.5t338 102.5t338 -103t233 -282.5t85 -410.5q0 -230 -85 -410t-233 -282.5t-338 -102.5zM824 81q162 0 282 91t186.5 246t66.5 345t-66.5 344.5t-187 246t-281.5 91.5q-160 0 -280.5 -91.5
t-187.5 -246t-67 -344.5t66.5 -345t187 -246t281.5 -91zM876 1699l300 429h200l-356 -429h-144zM530 1699l195 429h196l-277 -429h-114z" />
    <glyph glyph-name="uni0152" unicode="&#x152;" horiz-adv-x="2620" 
d="M1053 0q-258 0 -453 129t-304 360t-109 535q0 306 109 536.5t304 359t453 128.5h1346v-116h-1015v-849h954v-116h-954v-851h1039v-116h-1370zM1259 116v1816h-206q-220 1 -388 -113t-262 -318t-94 -477q0 -269 93 -474t260.5 -319.5t390.5 -114.5h206z" />
    <glyph glyph-name="uni0153" unicode="&#x153;" horiz-adv-x="2813" 
d="M821 -32q-190 0 -338 102.5t-233 282.5t-85 410q0 231 85 411t233 282.5t338 102.5t338 -103t233 -282.5t85 -410.5q0 -230 -85 -410t-233 -282.5t-338 -102.5zM821 81q162 0 282 91t186.5 246t66.5 345t-66.5 344.5t-187 246t-281.5 91.5q-160 0 -280.5 -91.5
t-187.5 -246t-67 -344.5t66.5 -345t187 -246t281.5 -91zM2043 -32q-208 0 -362 103t-238 282t-84 408q0 230 84.5 410t232.5 284t338 104q172 0 317 -90.5t233 -257t88 -394.5v-76h-1172q3 -189 70.5 -338t193 -235.5t299.5 -86.5q125 0 214.5 42.5t147.5 103.5t86 118
l111 -45q-35 -77 -108.5 -154t-186 -127.5t-264.5 -50.5zM1482 852h1048q0 167 -68 301t-185 213t-263 79t-261.5 -78.5t-187 -213t-83.5 -301.5z" />
    <glyph glyph-name="uni0154" unicode="&#x154;" horiz-adv-x="1755" 
d="M296 0v2048h631q195 0 334.5 -76t214.5 -210.5t75 -312.5q0 -207 -103 -355t-290 -205l483 -889h-144l-465 862q-51 -6 -104 -6h-507v-856h-125zM421 973h504q236 0 369 129.5t133 346.5q0 219 -133.5 351t-369.5 132h-503v-959zM801 2267l268 442h146l-302 -442h-112z
" />
    <glyph glyph-name="uni0155" unicode="&#x155;" horiz-adv-x="1040" 
d="M253 0v1536h119v-240h11q50 118 168.5 189.5t271.5 71.5q105 0 182 -37l-42 -107q-63 26 -147 26q-128 0 -227.5 -55t-156.5 -151.5t-57 -220.5v-1012h-122zM517 1755l268 442h146l-302 -442h-112z" />
    <glyph glyph-name="uni0156" unicode="&#x156;" horiz-adv-x="1755" 
d="M296 0v2048h631q195 0 334.5 -76t214.5 -210.5t75 -312.5q0 -207 -103 -355t-290 -205l483 -889h-144l-465 862q-51 -6 -104 -6h-507v-856h-125zM421 973h504q236 0 369 129.5t133 346.5q0 219 -133.5 351t-369.5 132h-503v-959zM978 -195l-14 -111
q-19 -141 -57.5 -302.5t-88.5 -275.5l-102 13q32 116 66 251t58 308l14 117h124z" />
    <glyph glyph-name="uni0157" unicode="&#x157;" horiz-adv-x="1040" 
d="M253 0v1536h119v-240h11q50 118 168.5 189.5t271.5 71.5q105 0 182 -37l-42 -107q-63 26 -147 26q-128 0 -227.5 -55t-156.5 -151.5t-57 -220.5v-1012h-122zM391 -195l-14 -111q-19 -141 -57.5 -302.5t-88.5 -275.5l-102 13q32 116 66 251t58 308l14 117h124z" />
    <glyph glyph-name="uni0158" unicode="&#x158;" horiz-adv-x="1755" 
d="M296 0v2048h631q195 0 334.5 -76t214.5 -210.5t75 -312.5q0 -207 -103 -355t-290 -205l483 -889h-144l-465 862q-51 -6 -104 -6h-507v-856h-125zM421 973h504q236 0 369 129.5t133 346.5q0 219 -133.5 351t-369.5 132h-503v-959zM600 2637l269 -298l269 298h126v-10
l-354 -390h-82l-354 390v10h126z" />
    <glyph glyph-name="uni0159" unicode="&#x159;" horiz-adv-x="1040" 
d="M253 0v1536h119v-240h11q50 118 168.5 189.5t271.5 71.5q105 0 182 -37l-42 -107q-63 26 -147 26q-128 0 -227.5 -55t-156.5 -151.5t-57 -220.5v-1012h-122zM316 2125l269 -298l269 298h126v-10l-354 -390h-82l-354 390v10h126z" />
    <glyph glyph-name="uni015A" unicode="&#x15a;" horiz-adv-x="1748" 
d="M1400 1536q-16 191 -155.5 309t-360.5 118q-149 0 -265 -54.5t-182 -150t-66 -218.5q0 -159 117.5 -255t302.5 -152l224 -66q153 -46 274.5 -114t191.5 -170.5t70 -250.5q0 -162 -84 -290t-237 -201.5t-361 -73.5q-297 0 -476 147t-196 382h128q15 -190 165 -301
t379 -111q165 0 291 56.5t197 157.5t71 235q0 161 -114 256t-334 162l-239 72q-241 74 -367 200t-126 313q0 158 84 280.5t228.5 192.5t326.5 70q183 0 323 -70.5t222.5 -193t90.5 -279.5h-123zM806 2267l268 442h146l-302 -442h-112z" />
    <glyph glyph-name="uni015B" unicode="&#x15b;" horiz-adv-x="1416" 
d="M1229 1205l-113 -30q-42 126 -133.5 199.5t-249.5 73.5q-169 0 -276.5 -84t-107.5 -219q0 -217 296 -290l236 -59q366 -91 366 -395q0 -127 -69 -225t-191 -153t-282 -55q-214 0 -352 101t-178 288l117 30q67 -307 412 -307q188 0 303.5 89t115.5 228q0 219 -274 286
l-245 60q-188 46 -282 148t-94 250q0 124 65 218t179 147t261 53q195 0 318 -92t178 -262zM660 1755l268 442h146l-302 -442h-112z" />
    <glyph glyph-name="uni015C" unicode="&#x15c;" horiz-adv-x="1748" 
d="M1400 1536q-16 191 -155.5 309t-360.5 118q-149 0 -265 -54.5t-182 -150t-66 -218.5q0 -159 117.5 -255t302.5 -152l224 -66q153 -46 274.5 -114t191.5 -170.5t70 -250.5q0 -162 -84 -290t-237 -201.5t-361 -73.5q-297 0 -476 147t-196 382h128q15 -190 165 -301
t379 -111q165 0 291 56.5t197 157.5t71 235q0 161 -114 256t-334 162l-239 72q-241 74 -367 200t-126 313q0 158 84 280.5t228.5 192.5t326.5 70q183 0 323 -70.5t222.5 -193t90.5 -279.5h-123zM606 2216l269 298l269 -298h126v10l-354 390h-82l-354 -390v-10h126z" />
    <glyph glyph-name="uni015D" unicode="&#x15d;" horiz-adv-x="1416" 
d="M1229 1205l-113 -30q-42 126 -133.5 199.5t-249.5 73.5q-169 0 -276.5 -84t-107.5 -219q0 -217 296 -290l236 -59q366 -91 366 -395q0 -127 -69 -225t-191 -153t-282 -55q-214 0 -352 101t-178 288l117 30q67 -307 412 -307q188 0 303.5 89t115.5 228q0 219 -274 286
l-245 60q-188 46 -282 148t-94 250q0 124 65 218t179 147t261 53q195 0 318 -92t178 -262zM459 1704l269 298l269 -298h126v10l-354 390h-82l-354 -390v-10h126z" />
    <glyph glyph-name="uni015E" unicode="&#x15e;" horiz-adv-x="1748" 
d="M1400 1536q-16 191 -155.5 309t-360.5 118q-149 0 -265 -54.5t-182 -150t-66 -218.5q0 -159 117.5 -255t302.5 -152l224 -66q153 -46 274.5 -114t191.5 -170.5t70 -250.5q0 -162 -84 -290t-237 -201.5t-361 -73.5q-297 0 -476 147t-196 382h128q15 -190 165 -301
t379 -111q165 0 291 56.5t197 157.5t71 235q0 161 -114 256t-334 162l-239 72q-241 74 -367 200t-126 313q0 158 84 280.5t228.5 192.5t326.5 70q183 0 323 -70.5t222.5 -193t90.5 -279.5h-123zM820 8h108l-15 -80q95 -14 151.5 -73t56.5 -160q0 -233 -320 -239l-4 95
q210 4 211 141q-1 154 -220 157z" />
    <glyph glyph-name="uni015F" unicode="&#x15f;" horiz-adv-x="1416" 
d="M1229 1205l-113 -30q-42 126 -133.5 199.5t-249.5 73.5q-169 0 -276.5 -84t-107.5 -219q0 -217 296 -290l236 -59q366 -91 366 -395q0 -127 -69 -225t-191 -153t-282 -55q-214 0 -352 101t-178 288l117 30q67 -307 412 -307q188 0 303.5 89t115.5 228q0 219 -274 286
l-245 60q-188 46 -282 148t-94 250q0 124 65 218t179 147t261 53q195 0 318 -92t178 -262zM663 8h108l-15 -80q95 -14 151.5 -73t56.5 -160q0 -233 -320 -239l-4 95q210 4 211 141q-1 154 -220 157z" />
    <glyph glyph-name="uni0160" unicode="&#x160;" horiz-adv-x="1748" 
d="M1400 1536q-16 191 -155.5 309t-360.5 118q-149 0 -265 -54.5t-182 -150t-66 -218.5q0 -159 117.5 -255t302.5 -152l224 -66q153 -46 274.5 -114t191.5 -170.5t70 -250.5q0 -162 -84 -290t-237 -201.5t-361 -73.5q-297 0 -476 147t-196 382h128q15 -190 165 -301
t379 -111q165 0 291 56.5t197 157.5t71 235q0 161 -114 256t-334 162l-239 72q-241 74 -367 200t-126 313q0 158 84 280.5t228.5 192.5t326.5 70q183 0 323 -70.5t222.5 -193t90.5 -279.5h-123zM606 2637l269 -298l269 298h126v-10l-354 -390h-82l-354 390v10h126z" />
    <glyph glyph-name="uni0161" unicode="&#x161;" horiz-adv-x="1416" 
d="M1229 1205l-113 -30q-42 126 -133.5 199.5t-249.5 73.5q-169 0 -276.5 -84t-107.5 -219q0 -217 296 -290l236 -59q366 -91 366 -395q0 -127 -69 -225t-191 -153t-282 -55q-214 0 -352 101t-178 288l117 30q67 -307 412 -307q188 0 303.5 89t115.5 228q0 219 -274 286
l-245 60q-188 46 -282 148t-94 250q0 124 65 218t179 147t261 53q195 0 318 -92t178 -262zM459 2125l269 -298l269 298h126v-10l-354 -390h-82l-354 390v10h126z" />
    <glyph glyph-name="uni0162" unicode="&#x162;" horiz-adv-x="1755" 
d="M160 1932v116h1435v-116h-655v-1932h-125v1932h-655zM832 3h108l-15 -80q95 -14 151.5 -73t56.5 -160q0 -233 -320 -239l-4 95q210 4 211 141q-1 154 -220 157z" />
    <glyph glyph-name="uni0163" unicode="&#x163;" horiz-adv-x="995" 
d="M796 1536v-109h-323v-1064q0 -139 79 -204.5t181 -65.5q33 0 57.5 5.5t46.5 12.5l30 -111q-28 -10 -61.5 -17.5t-80.5 -7.5q-96 0 -181 43t-138.5 124.5t-53.5 198.5v1086h-227v109h227v368h121v-368h323zM595 8h108l-15 -80q95 -14 151.5 -73t56.5 -160
q0 -233 -320 -239l-4 95q210 4 211 141q-1 154 -220 157z" />
    <glyph glyph-name="uni0164" unicode="&#x164;" horiz-adv-x="1755" 
d="M160 1932v116h1435v-116h-655v-1932h-125v1932h-655zM608 2637l269 -298l269 298h126v-10l-354 -390h-82l-354 390v10h126z" />
    <glyph glyph-name="uni0165" unicode="&#x165;" horiz-adv-x="1013" 
d="M796 1536v-109h-323v-1064q0 -139 79 -204.5t181 -65.5q33 0 57.5 5.5t46.5 12.5l30 -111q-28 -10 -61.5 -17.5t-80.5 -7.5q-96 0 -181 43t-138.5 124.5t-53.5 198.5v1086h-227v109h227v368h121v-368h323zM797 2194l-14 -111q-19 -141 -57.5 -302.5t-88.5 -275.5l-102 13
q32 116 66 251t58 308l14 117h124z" />
    <glyph glyph-name="uni0166" unicode="&#x166;" horiz-adv-x="1755" 
d="M160 1932v116h1435v-116h-655v-1932h-125v1932h-655zM477 1004v104h800v-104h-800z" />
    <glyph glyph-name="uni0167" unicode="&#x167;" horiz-adv-x="995" 
d="M107 888v171h245v368h-227v109h227v368h121v-368h323v-109h-323v-368h342v-171h-342v-525q0 -139 79 -204.5t181 -65.5q33 0 57.5 5.5t46.5 12.5l30 -111q-28 -10 -61.5 -17.5t-80.5 -7.5q-96 0 -181 43t-138.5 124.5t-53.5 198.5v547h-245z" />
    <glyph glyph-name="uni0168" unicode="&#x168;" horiz-adv-x="2104" 
d="M1683 2048h125v-1356q0 -215 -100.5 -378.5t-271.5 -255t-384 -91.5q-211 0 -383 92t-272.5 255.5t-100.5 377.5v1356h125v-1356q0 -179 84 -315.5t227 -213t320 -76.5q178 0 320.5 76.5t226.5 213t84 315.5v1356zM686 2288l-104 8q9 113 87.5 185t189.5 72q65 0 113 -23
t89 -53t83.5 -53t97.5 -23q65 0 116.5 43.5t61.5 111.5l103 -16q-14 -113 -93.5 -181t-183.5 -68q-66 0 -111.5 23t-84.5 53t-82 53t-105 23q-71 0 -121 -44t-56 -111z" />
    <glyph glyph-name="uni0169" unicode="&#x169;" horiz-adv-x="1612" 
d="M1237 545v991h122v-1536h-122v249h-10q-54 -118 -174.5 -193.5t-284.5 -75.5q-226 0 -370.5 145.5t-144.5 397.5v1013h122v-1008q0 -192 117 -310.5t301 -118.5q120 0 221 54.5t162 154.5t61 237zM440 1776l-104 8q9 113 87.5 185t189.5 72q65 0 113 -23t89 -53t83.5 -53
t97.5 -23q65 0 116.5 43.5t61.5 111.5l103 -16q-14 -113 -93.5 -181t-183.5 -68q-66 0 -111.5 23t-84.5 53t-82 53t-105 23q-71 0 -121 -44t-56 -111z" />
    <glyph glyph-name="uni016A" unicode="&#x16a;" horiz-adv-x="2104" 
d="M1683 2048h125v-1356q0 -215 -100.5 -378.5t-271.5 -255t-384 -91.5q-211 0 -383 92t-272.5 255.5t-100.5 377.5v1356h125v-1356q0 -179 84 -315.5t227 -213t320 -76.5q178 0 320.5 76.5t226.5 213t84 315.5v1356zM1422 2469v-109h-739v109h739z" />
    <glyph glyph-name="uni016B" unicode="&#x16b;" horiz-adv-x="1612" 
d="M1237 545v991h122v-1536h-122v249h-10q-54 -118 -174.5 -193.5t-284.5 -75.5q-226 0 -370.5 145.5t-144.5 397.5v1013h122v-1008q0 -192 117 -310.5t301 -118.5q120 0 221 54.5t162 154.5t61 237zM1176 1957v-109h-739v109h739z" />
    <glyph glyph-name="uni016C" unicode="&#x16c;" horiz-adv-x="2104" 
d="M1683 2048h125v-1356q0 -215 -100.5 -378.5t-271.5 -255t-384 -91.5q-211 0 -383 92t-272.5 255.5t-100.5 377.5v1356h125v-1356q0 -179 84 -315.5t227 -213t320 -76.5q178 0 320.5 76.5t226.5 213t84 315.5v1356zM1224 2560h116q0 -124 -77 -199.5t-211 -75.5
q-133 0 -210 75.5t-77 199.5h116q0 -79 42 -127t129 -48t129.5 48t42.5 127z" />
    <glyph glyph-name="uni016D" unicode="&#x16d;" horiz-adv-x="1612" 
d="M1237 545v991h122v-1536h-122v249h-10q-54 -118 -174.5 -193.5t-284.5 -75.5q-226 0 -370.5 145.5t-144.5 397.5v1013h122v-1008q0 -192 117 -310.5t301 -118.5q120 0 221 54.5t162 154.5t61 237zM979 2048h116q0 -124 -77 -199.5t-211 -75.5q-133 0 -210 75.5t-77 199.5
h116q0 -79 42 -127t129 -48t129.5 48t42.5 127z" />
    <glyph glyph-name="uni016E" unicode="&#x16e;" horiz-adv-x="2104" 
d="M1683 2048h125v-1356q0 -215 -100.5 -378.5t-271.5 -255t-384 -91.5q-211 0 -383 92t-272.5 255.5t-100.5 377.5v1356h125v-1356q0 -179 84 -315.5t227 -213t320 -76.5q178 0 320.5 76.5t226.5 213t84 315.5v1356zM1052 2160q-109 0 -186 75t-77 181q0 107 77 181.5
t186 74.5t185.5 -74.5t76.5 -181.5q0 -106 -76.5 -181t-185.5 -75zM1052 2253q68 0 116 48t48 115q0 68 -48 115.5t-116 47.5q-69 0 -116.5 -47.5t-47.5 -115.5t48 -115.5t116 -47.5z" />
    <glyph glyph-name="uni016F" unicode="&#x16f;" horiz-adv-x="1612" 
d="M1237 545v991h122v-1536h-122v249h-10q-54 -118 -174.5 -193.5t-284.5 -75.5q-226 0 -370.5 145.5t-144.5 397.5v1013h122v-1008q0 -192 117 -310.5t301 -118.5q120 0 221 54.5t162 154.5t61 237zM807 1721q-115 0 -194.5 77t-79.5 189q0 111 79.5 190t194.5 79
q114 0 193 -79t79 -190q0 -112 -79 -189t-193 -77zM807 1815q74 0 123.5 51t49.5 121q0 71 -49.5 122.5t-123.5 51.5t-124 -51.5t-50 -122.5q0 -70 50.5 -121t123.5 -51z" />
    <glyph glyph-name="uni0170" unicode="&#x170;" horiz-adv-x="2104" 
d="M1683 2048h125v-1356q0 -215 -100.5 -378.5t-271.5 -255t-384 -91.5q-211 0 -383 92t-272.5 255.5t-100.5 377.5v1356h125v-1356q0 -179 84 -315.5t227 -213t320 -76.5q178 0 320.5 76.5t226.5 213t84 315.5v1356zM1104 2211l300 429h200l-356 -429h-144zM758 2211
l195 429h196l-277 -429h-114z" />
    <glyph glyph-name="uni0171" unicode="&#x171;" horiz-adv-x="1612" 
d="M1237 545v991h122v-1536h-122v249h-10q-54 -118 -174.5 -193.5t-284.5 -75.5q-226 0 -370.5 145.5t-144.5 397.5v1013h122v-1008q0 -192 117 -310.5t301 -118.5q120 0 221 54.5t162 154.5t61 237zM859 1699l300 429h200l-356 -429h-144zM513 1699l195 429h196l-277 -429
h-114z" />
    <glyph glyph-name="uni0172" unicode="&#x172;" horiz-adv-x="2104" 
d="M1683 2048h125v-1356q0 -215 -100.5 -378.5t-271.5 -255t-384 -91.5q-211 0 -383 92t-272.5 255.5t-100.5 377.5v1356h125v-1356q0 -179 84 -315.5t227 -213t320 -76.5q178 0 320.5 76.5t226.5 213t84 315.5v1356zM1026 -612q-118 2 -192.5 68.5t-59.5 195.5
q17 105 120 206.5t345 211.5l-31 -63q-87 -80 -165.5 -169.5t-79.5 -193.5q1 -42 21 -67t88 -26q53 1 94.5 15.5t63.5 28.5l-3 -147q-31 -19 -82 -38.5t-119 -21.5z" />
    <glyph glyph-name="uni0173" unicode="&#x173;" horiz-adv-x="1612" 
d="M1237 545v991h122v-1536h-122v249h-10q-54 -118 -174.5 -193.5t-284.5 -75.5q-226 0 -370.5 145.5t-144.5 397.5v1013h122v-1008q0 -192 117 -310.5t301 -118.5q120 0 221 54.5t162 154.5t61 237zM1176 -619q-118 2 -192.5 68.5t-59.5 195.5q17 105 120 206.5t345 211.5
l-31 -63q-87 -80 -165.5 -169.5t-79.5 -193.5q1 -42 21 -67t88 -26q53 1 94.5 15.5t63.5 28.5l-3 -147q-31 -19 -82 -38.5t-119 -21.5z" />
    <glyph glyph-name="uni0174" unicode="&#x174;" horiz-adv-x="2565" 
d="M636 0l-563 2048h130l500 -1855h12l492 1855h152l492 -1855h12l500 1855h129l-563 -2048h-144l-497 1843h-11l-497 -1843h-144zM1014 2216l269 298l269 -298h126v10l-354 390h-82l-354 -390v-10h126z" />
    <glyph glyph-name="uni0175" unicode="&#x175;" horiz-adv-x="2245" 
d="M588 0l-460 1536h128l396 -1357h11l397 1357h127l396 -1356h10l396 1356h128l-460 -1536h-136l-392 1337h-13l-392 -1337h-136zM854 1704l269 298l269 -298h126v10l-354 390h-82l-354 -390v-10h126z" />
    <glyph glyph-name="uni0176" unicode="&#x176;" horiz-adv-x="1776" 
d="M88 2048h148l645 -988h14l645 988h148l-737 -1119v-929h-126v929zM619 2216l269 298l269 -298h126v10l-354 390h-82l-354 -390v-10h126z" />
    <glyph glyph-name="uni0177" unicode="&#x177;" horiz-adv-x="1504" 
d="M341 -604q-46 0 -91 10t-81 26l36 107q143 -54 243.5 -4t163.5 225l79 219l-563 1557h131l488 -1379h10l488 1379h131l-657 -1824q-118 -318 -378 -316zM483 1704l269 298l269 -298h126v10l-354 390h-82l-354 -390v-10h126z" />
    <glyph glyph-name="uni0178" unicode="&#x178;" horiz-adv-x="1776" 
d="M88 2048h148l645 -988h14l645 988h148l-737 -1119v-929h-126v929zM664 2320q-38 0 -67 29t-29 67q0 41 29 68.5t67 27.5q41 0 68.5 -27.5t27.5 -68.5q0 -38 -27.5 -67t-68.5 -29zM1112 2320q-38 0 -67 29t-29 67q0 41 29 68.5t67 27.5q41 0 68.5 -27.5t27.5 -68.5
q0 -38 -27.5 -67t-68.5 -29z" />
    <glyph glyph-name="uni0179" unicode="&#x179;" horiz-adv-x="1723" 
d="M201 0v103l1171 1829h-1169v116h1318v-103l-1170 -1829h1180v-116h-1330zM793 2267l268 442h146l-302 -442h-112z" />
    <glyph glyph-name="uni017A" unicode="&#x17a;" horiz-adv-x="1463" 
d="M201 0v103l904 1306v11h-854v116h1009v-105l-896 -1304v-11h932v-116h-1095zM662 1755l268 442h146l-302 -442h-112z" />
    <glyph glyph-name="uni017B" unicode="&#x17b;" horiz-adv-x="1723" 
d="M201 0v103l1171 1829h-1169v116h1318v-103l-1170 -1829h1180v-116h-1330zM862 2320q-40 0 -69.5 28t-29.5 68t29.5 68t69.5 28q41 0 69.5 -28t28.5 -68t-28.5 -68t-69.5 -28z" />
    <glyph glyph-name="uni017C" unicode="&#x17c;" horiz-adv-x="1463" 
d="M201 0v103l904 1306v11h-854v116h1009v-105l-896 -1304v-11h932v-116h-1095zM731 1808q-40 0 -69.5 28t-29.5 68t29.5 68t69.5 28q41 0 69.5 -28t28.5 -68t-28.5 -68t-69.5 -28z" />
    <glyph glyph-name="uni017D" unicode="&#x17d;" horiz-adv-x="1723" 
d="M201 0v103l1171 1829h-1169v116h1318v-103l-1170 -1829h1180v-116h-1330zM592 2637l269 -298l269 298h126v-10l-354 -390h-82l-354 390v10h126z" />
    <glyph glyph-name="uni017E" unicode="&#x17e;" horiz-adv-x="1463" 
d="M201 0v103l904 1306v11h-854v116h1009v-105l-896 -1304v-11h932v-116h-1095zM462 2125l269 -298l269 298h126v-10l-354 -390h-82l-354 390v10h126z" />
    <glyph glyph-name="uni017F" unicode="&#x17f;" horiz-adv-x="711" 
d="M239 0h-178v1659q0 233 111.5 357t300.5 124q44 0 89.5 -8t88.5 -20l-32 -127q-19 6 -50 9t-60 3q-133 0 -201.5 -91t-68.5 -247v-1659z" />
    <glyph glyph-name="uni0180" unicode="&#x180;" horiz-adv-x="1705" 
d="M296 0v2048h121v-855h12q53 149 175.5 257.5t319.5 108.5q185 0 322.5 -102.5t214 -281.5t76.5 -411t-76 -412t-213.5 -282t-322.5 -102q-197 0 -319 109.5t-177 257.5h-14v-335h-119zM416 765q0 -196 60 -351t171.5 -244t267.5 -89q158 0 270 90.5t171.5 245.5t59.5 348
t-59.5 347t-171.5 243.5t-270 89.5q-156 0 -267.5 -88.5t-171.5 -242t-60 -349.5zM-43 1708v104h800v-104h-800z" />
    <glyph glyph-name="uni0181" unicode="&#x181;" horiz-adv-x="2140" 
d="M623 0v2048h665q279 0 427 -146t148 -382q0 -187 -88 -307.5t-231 -157.5v-12q106 -8 196.5 -73.5t146.5 -177.5t56 -261q0 -235 -152 -383t-449 -148h-719zM748 116h594q231 0 355.5 116t124.5 299q0 129 -60.5 231.5t-167.5 161.5t-248 59h-598v-867zM748 1097h583
q196 0 303.5 123.5t107.5 299.5q0 191 -118 301.5t-336 110.5h-540v-835zM584 1919h-129q-78 -1 -112.5 -35t-43 -88.5t-8.5 -119.5v-49h-131v93q1 80 32 155t95.5 124t163.5 49h133v-129z" />
    <glyph glyph-name="uni0182" unicode="&#x182;" horiz-adv-x="1837" 
d="M296 0v2048h1153v-129h-1030v-800h645q307 0 457.5 -148.5t150.5 -398.5q0 -253 -150.5 -412.5t-457.5 -159.5h-768zM419 128h645q156 0 264.5 65.5t165.5 168.5t57 214q0 109 -57 201t-165.5 148t-264.5 56h-645v-853z" />
    <glyph glyph-name="uni0183" unicode="&#x183;" horiz-adv-x="1705" 
d="M1363 2048v-116h-946v-739h12q53 149 175.5 257.5t319.5 108.5q185 0 322.5 -102.5t214 -281.5t76.5 -411t-76 -412t-213.5 -282t-322.5 -102q-197 0 -319 109.5t-177 257.5h-14v-335h-119v2048h1067zM416 765q0 -196 60 -351t171.5 -244t267.5 -89q158 0 270 90.5
t171.5 245.5t59.5 348t-59.5 347t-171.5 243.5t-270 89.5q-156 0 -267.5 -88.5t-171.5 -242t-60 -349.5z" />
    <glyph glyph-name="uni0184" unicode="&#x184;" horiz-adv-x="1881" 
d="M668 2048v-129h-48v-800h643q308 0 458 -148.5t150 -398.5q0 -253 -150 -412.5t-458 -159.5h-768v1919h-472v129h645zM620 981v-853h643q156 0 265 65.5t166.5 168.5t57.5 214q0 109 -57.5 201t-166.5 148t-265 56h-643z" />
    <glyph glyph-name="uni0185" unicode="&#x185;" horiz-adv-x="1705" 
d="M299 2112h61v-64h85v-801h23q18 22 45 71.5t77 104.5t138 94t229 39q212 0 364 -103.5t233 -282.5t81 -406q0 -235 -82.5 -416t-233 -283t-355.5 -102q-135 0 -222.5 39t-141 94.5t-83.5 107.5t-49 77h-33v-1v-280h-100v1440h-36l-198 312v51zM1511 768q0 179 -57.5 329
t-173.5 241t-292 91q-242 0 -381.5 -178t-138.5 -483q-1 -310 141.5 -493.5t378.5 -182.5q173 0 289 93t175 247.5t59 335.5z" />
    <glyph glyph-name="uni0186" unicode="&#x186;" horiz-adv-x="2001" 
d="M947 -28q-169 0 -330.5 64t-282.5 203t-169 364l123 -3q36 -163 136 -274t239 -167t289 -56q206 0 378 106.5t275.5 312t103.5 502.5q0 302 -104 507t-276 309.5t-377 104.5q-147 0 -285 -54.5t-239.5 -162.5t-139.5 -269h-123q44 193 158.5 331t276 212t347.5 74
q256 0 452 -131t306.5 -367.5t110.5 -553.5t-112 -554t-308 -367.5t-449 -130.5z" />
    <glyph glyph-name="uni0187" unicode="&#x187;" horiz-adv-x="2047" 
d="M1856 1408h-128q-26 138 -114.5 263.5t-229 205t-325.5 79.5q-202 0 -371 -108t-271 -315.5t-102 -508.5q0 -303 102 -511t271 -314.5t371 -106.5q185 0 325.5 79t229 204.5t114.5 264.5h128q-29 -166 -130.5 -319t-269.5 -251t-397 -98q-255 0 -450.5 130.5t-306 367.5
t-110.5 554q0 318 110.5 554.5t306 367t450.5 130.5q227 0 394 -97t268 -243v0q0 150 71.5 234t187.5 85q25 -1 53.5 -2.5t37.5 -9.5v-104q-9 3 -17.5 5.5t-26.5 2.5q-97 0 -143.5 -36t-46.5 -140v-281q12 -41 19 -82z" />
    <glyph glyph-name="uni0188" unicode="&#x188;" horiz-adv-x="1659" 
d="M829 -32q-196 0 -345 104t-232.5 283.5t-83.5 407.5t84 408t233 284t343 104q132 0 244.5 -50t191.5 -139q27 131 117.5 222t223.5 91q12 0 38 -0.5t45 -3.5v-110q-30 3 -63 3q-109 0 -179.5 -87.5t-70.5 -219.5v-93q14 -42 21 -88h-124q-6 33 -17 64h-2v6
q-46 128 -158.5 209.5t-265.5 81.5q-156 0 -278 -87.5t-192 -241t-70 -351.5q0 -195 68 -350t190 -244.5t282 -89.5q169 0 292.5 100t153.5 267h124q-22 -142 -100 -250t-199 -169t-271 -61z" />
    <glyph glyph-name="uni0189" unicode="&#x189;" horiz-adv-x="2016" 
d="M864 0h-568v2048h612q288 0 493 -121.5t314.5 -349.5t108.5 -546q-1 -487 -252 -759t-708 -272zM421 116h438q411 0 627.5 243t214.5 672q-1 422 -206.5 661.5t-591.5 239.5h-482v-1816zM-41 993v104h800v-104h-800z" />
    <glyph glyph-name="uni018A" unicode="&#x18a;" horiz-adv-x="2356" 
d="M1212 0h-568v2048h612q288 0 493 -121.5t314.5 -349.5t108.5 -546q-1 -487 -252 -759t-708 -272zM769 116h438q411 0 627.5 243t214.5 672q-1 422 -206.5 661.5t-591.5 239.5h-482v-1816zM160 1627v93q1 80 32 155t95.5 124t163.5 49h133v-119h-129q-78 0 -112.5 -36.5
t-43 -94t-8.5 -122.5v-49h-131z" />
    <glyph glyph-name="uni018B" unicode="&#x18b;" horiz-adv-x="1701" 
d="M1540 0h-764q-308 0 -461.5 159t-153.5 413q0 251 153.5 405t461.5 155h579v699h-964v149h1149v-1980zM1355 148v827h-579q-158 0 -251.5 -54.5t-134 -145t-39.5 -199.5q-1 -111 39.5 -209t134 -158.5t251.5 -60.5h579z" />
    <glyph glyph-name="uni018C" unicode="&#x18c;" horiz-adv-x="1705" 
d="M342 2048v-116h946v-739h-12q-53 149 -175.5 257.5t-319.5 108.5q-185 0 -322.5 -102.5t-214 -281.5t-76.5 -411t76 -412t213.5 -282t322.5 -102q197 0 319 109.5t177 257.5h14v-335h119v2048h-1067zM1289 765q0 -196 -60 -351t-171.5 -244t-267.5 -89q-158 0 -270 90.5
t-171.5 245.5t-59.5 348t59.5 347t171.5 243.5t270 89.5q156 0 267.5 -88.5t171.5 -242t60 -349.5z" />
    <glyph glyph-name="uni018D" unicode="&#x18d;" horiz-adv-x="1304" 
d="M1079 -516h-878v132h630q-10 19 -44 59.5t-78.5 88t-87 90t-69.5 66.5q-154 140 -272.5 270t-185.5 268t-67 298v28q0 208 74.5 373.5t214.5 262t335 96.5q196 0 337 -101t217 -274t76 -389v-28q0 -148 -72.5 -282.5t-218.5 -227t-366 -115.5q-36 -5 -35 -5q-1 0 -13 1
q137 -133 261 -237.5t242 -244.5v-129zM1101 756v28q0 165 -50.5 298.5t-150.5 212t-249 78.5t-249 -81t-150 -214.5t-49 -293.5v-28q-1 -167 81.5 -298t182.5 -202q64 -19 149 -19q164 0 271.5 73.5t160.5 192.5t53 253z" />
    <glyph glyph-name="uni018E" unicode="&#x18e;" horiz-adv-x="1629" 
d="M1372 2048v-2048h-1140v116h1015v849h-954v116h954v851h-1039v116h1164z" />
    <glyph glyph-name="uni018F" unicode="&#x18f;" horiz-adv-x="1952" 
d="M973 -28q-393 0 -589.5 244t-195.5 660v132h1393v16q0 244 -70.5 441t-216.5 313.5t-374 116.5q-169 0 -272.5 -41t-172.5 -79l-68 109q27 20 81.5 55t154 64t261.5 29q277 0 470 -129t294.5 -356t102.5 -523v-49q-1 -223 -64 -407t-173 -317.5t-254 -206t-307 -72.5z
M1578 883h-1207v-44q0 -205 55 -371.5t186.5 -264.5t360.5 -98q179 0 309.5 103t206.5 279t89 396z" />
    <glyph glyph-name="uni0190" unicode="&#x190;" horiz-adv-x="1701" 
d="M1059 1080v-137h-206q-499 0 -497 -395q-1 -212 136.5 -320t380.5 -108q148 0 255.5 60t166 159.5t57.5 216.5h183q0 -204 -97.5 -333t-249.5 -190t-315 -61q-194 0 -354 57.5t-255.5 187t-96.5 343.5q1 171 89.5 288.5t252.5 175.5q-145 59 -227.5 169t-82.5 267
q1 279 185.5 425.5t488.5 146.5q174 0 318 -66t230.5 -187.5t85.5 -287.5h-183q1 109 -57.5 197t-160.5 140t-233 52q-259 0 -375.5 -118.5t-116.5 -286.5q0 -104 45 -189t148.5 -135t278.5 -50h206v-21z" />
    <glyph glyph-name="uni0191" unicode="&#x191;" horiz-adv-x="1607" 
d="M253 -208v2256h1143v-116h-1018v-849h923v-116h-923v-967h1v-209q0 -177 -88 -270.5t-260 -93.5q-38 0 -82 18l22 104q23 -10 60 -10q108 0 165 59.5t57 193.5z" />
    <glyph glyph-name="uni0192" unicode="&#x192;" horiz-adv-x="933" 
d="M768 1488v-137h-269v-1518q0 -210 -97 -321.5t-283 -111.5q-35 0 -65 4t-57 16l20 139q20 -10 73 -13t66 -3q72 0 139 77t68 213v1518h-259v137h259v171q-1 233 100.5 357t239.5 124q51 0 126.5 -11.5t106.5 -29.5l-73 -144q-16 5 -41.5 10.5t-52.5 5.5q-270 0 -270 -312
v-171h269z" />
    <glyph glyph-name="uni0193" unicode="&#x193;" horiz-adv-x="2061" 
d="M1731 1408l-4 16h-2l1 6q-35 134 -122.5 254.5t-225.5 196t-322 75.5q-217 0 -384.5 -114t-262 -323t-94.5 -495q0 -283 94 -492.5t263.5 -324.5t394.5 -115q198 0 352 90t242 258.5t90 403.5h-652v116h774v-116q0 -271 -104 -466.5t-285.5 -300.5t-416.5 -105
q-264 0 -461 131t-305.5 367.5t-108.5 553.5q0 318 109 554.5t303.5 367t451.5 130.5q250 0 427.5 -116t274.5 -281q20 102 70 157.5t175 55.5q9 0 28 1h38.5t26.5 -5v-107q-13 6 -49 6q-90 0 -143 -48t-52 -163v-133q4 -18 7 -35h-128z" />
    <glyph glyph-name="uni0194" unicode="&#x194;" horiz-adv-x="1561" 
d="M-31 2072h119l687 -1647l700 1647h118l-739 -1836l19 -45q53 -128 90.5 -206t60.5 -126.5t33.5 -86t10.5 -84.5q0 -122 -67 -205t-220 -83q-154 0 -216.5 83t-61.5 205q-1 52 6 90.5t26.5 86.5t54.5 128q17 38 38.5 87t47.5 111l28 66zM783 63q-66 -156 -107 -245
t-41 -141q0 -40 44 -72t102 -32q57 0 101.5 32.5t45.5 71.5q-1 55 -39 140.5t-106 245.5z" />
    <glyph glyph-name="uni0195" unicode="&#x195;" horiz-adv-x="2595" 
d="M248 0v2048h116v-731h23q54 108 157 173.5t289 65.5q233 0 376 -133.5t143 -446.5v-360q0 -174 35.5 -279.5t90 -160t114 -73.5t108.5 -19q96 0 191 58.5t174 196t126.5 374t47.5 591.5v232h110v-232q0 -366 -59.5 -620.5t-157 -411.5t-215 -228.5t-233.5 -71.5
q-107 0 -208.5 62t-166.5 203t-65 379v384q-1 209 -111 324t-301 116q-204 -1 -340.5 -128.5t-135.5 -363.5v-948h-108z" />
    <glyph glyph-name="uni0196" unicode="&#x196;" horiz-adv-x="951" 
d="M359 2112v-1656q0 -155 68.5 -248.5t201.5 -92.5q27 -1 58 4.5t52 11.5l32 -131q-43 -12 -88.5 -20t-89.5 -8q-190 0 -301 126t-111 358v1656h178z" />
    <glyph glyph-name="uni0197" unicode="&#x197;" horiz-adv-x="717" 
d="M421 2048v-2048h-125v2048h125zM-41 1004v104h800v-104h-800z" />
    <glyph glyph-name="uni0198" unicode="&#x198;" horiz-adv-x="1785" 
d="M296 0v2048h123v-1104h24l905 1019q63 73 139 96.5t148.5 8t123.5 -60.5l-76 -104q-54 41 -127.5 39t-155.5 -91l-651 -711l871 -1140h-156l-784 1056l-261 -301v-755h-123z" />
    <glyph glyph-name="uni0199" unicode="&#x199;" horiz-adv-x="1417" 
d="M1195 0l-631 796l-208 -224v-572h-108v1712q-1 88 35.5 171.5t107.5 138t172 54.5h12q15 1 34 0.5t34 -9.5v-118q-20 8 -55 8q-107 0 -170 -53t-62 -192v-969h20l728 793h169l-620 -656l703 -880h-161z" />
    <glyph glyph-name="uni019A" unicode="&#x19a;" horiz-adv-x="628" 
d="M375 2048v-2048h-122v2048h122zM-85 1004v104h800v-104h-800z" />
    <glyph glyph-name="uni019B" unicode="&#x19b;" horiz-adv-x="1705" 
d="M843 1995v-212l-80 -35l97 -259l4 -1l-1 -6l468 -1251q25 -66 46 -76.5t51 -9.5h15h48l13 -145q-20 -22 -76 -24h-31q-50 -1 -90.5 9t-80.5 63.5t-90 182.5l-359 900l-417 -1131h-205l528 1369l-114 295l-314 -137v205l242 108q-26 48 -52.5 63t-56.5 16
q-9 -1 -28.5 -1.5t-22.5 -2.5l6 136q0 2 25.5 5t46.5 3q115 0 176.5 -34.5t97.5 -98.5z" />
    <glyph glyph-name="uni019C" unicode="&#x19c;" horiz-adv-x="2449" 
d="M2043 692h1v1312h171v-2004h-180l6 168q-65 -92 -170.5 -144t-259.5 -52q-147 0 -257.5 64t-165.5 225q-61 -133 -177.5 -211t-302.5 -78q-135 0 -242.5 60t-170 202.5t-62.5 389.5v1380h183v-1380q0 -208 43.5 -315t109 -144t130.5 -37q219 -1 320.5 129.5t119.5 328.5
v38v1380h176v-1380q-1 -208 44.5 -315t113 -144t131.5 -37q165 0 261 75t137 203t41 286z" />
    <glyph glyph-name="uni019D" unicode="&#x19d;" horiz-adv-x="2172" 
d="M313 0h3v2048h123l1306 -1823h12v1823h124v-2048h-122l-1306 1821h-12v-1821h-2v-212q-1 -87 -41 -171t-113 -138.5t-172 -54.5q-34 0 -54 1.5t-39 10.5v124q11 -3 28 -7t40 -4q104 0 164.5 53t60.5 193v205z" />
    <glyph glyph-name="uni019E" unicode="&#x19e;" horiz-adv-x="1616" 
d="M375 996v-996h-122v1536h119v-243h12q54 119 173 191t283 72q232 0 377.5 -145.5t145.5 -397.5v-1589h-122v1584q0 196 -116.5 315.5t-307.5 119.5q-192 0 -317 -123t-125 -324z" />
    <glyph glyph-name="uni019F" unicode="&#x19f;" horiz-adv-x="2105" 
d="M1925 1024q0 -316 -110 -553t-305.5 -368t-450.5 -131q-256 0 -451.5 131.5t-305.5 368t-110 552.5q0 317 110 553.5t305.5 367.5t451.5 131q255 0 450.5 -131t305.5 -367.5t110 -553.5zM1799 916q-145 -62 -274.5 -68t-249.5 20.5t-239 60.5q-111 33 -225 58.5
t-236 24.5t-259 -49q11 -266 107.5 -461.5t260.5 -302.5t375 -107q203 0 363.5 100.5t259.5 285.5t117 438zM1801 1095q-12 264 -110 457t-261 298.5t-371 105.5q-202 0 -361.5 -98.5t-258.5 -281t-119 -433.5q141 57 267 61t243.5 -22t233.5 -60q114 -33 230.5 -59
t241.5 -23.5t265 55.5z" />
    <glyph glyph-name="uni01A0" unicode="&#x1a0;" horiz-adv-x="2107" 
d="M1853 2228h210q0 -406 -333 -503q93 -134 144 -311.5t51 -389.5q0 -316 -110 -553t-305.5 -368t-450.5 -131q-256 0 -451.5 131.5t-305.5 368t-110 552.5q0 317 110 553.5t305.5 367.5t451.5 131q155 0 289.5 -50t241.5 -143q130 17 196.5 107t66.5 238zM1803 1024
q0 213 -55 384.5t-153 292.5q-34 -2 -71 -2v79q-193 178 -465 178q-217 0 -385 -114t-263.5 -323t-95.5 -495q0 -283 95 -492.5t262.5 -324.5t386.5 -115q217 0 385 114.5t263.5 324t95.5 493.5z" />
    <glyph glyph-name="uni01A1" unicode="&#x1a1;" horiz-adv-x="1620" 
d="M1424 1671h196q0 -172 -54 -290.5t-195 -159.5q52 -96 80.5 -211.5t28.5 -246.5q0 -230 -85 -410t-233 -282.5t-338 -102.5t-338 102.5t-233 282.5t-85 410q0 231 85 411t233 282.5t338 102.5q130 0 241.5 -49.5t196.5 -139.5q110 15 135.5 98t26.5 203zM824 81
q162 0 282 91t186.5 246t66.5 345q0 254 -116 439q-14 -1 -28 -1v42q-70 94 -169.5 148t-221.5 54q-160 0 -280.5 -91.5t-187.5 -246t-67 -344.5t66.5 -345t187 -246t281.5 -91z" />
    <glyph glyph-name="uni01A2" unicode="&#x1a2;" horiz-adv-x="2065" 
d="M1576 888v-605q-21 -42 -61 -95t-112 -102.5t-187.5 -81.5t-287.5 -32q-226 0 -408.5 108t-289.5 320.5t-107 526.5v153q0 298 105.5 511t288 327t411.5 114q171 0 287 -32.5t188 -82t112 -102.5t61 -94v-649l-173 3v629q-23 32 -70 73t-145 72t-276 31
q-168 0 -306.5 -94t-220.5 -272.5t-82 -433.5v-153q0 -243 73 -424.5t214 -282t342 -100.5q163 0 256 30t141 71.5t74 74.5v592h173zM1944 2004v-2576h-183v2456l-240 -60v85l278 95h145z" />
    <glyph glyph-name="uni01A3" unicode="&#x1a3;" horiz-adv-x="1565" 
d="M1480 1488v-2060h-173v1781l-184 -134v-948q-84 -75 -200 -115t-196 -40q-221 0 -363 106t-210.5 275t-68.5 358v69q0 189 69.5 357t212 273.5t360.5 105.5q108 0 208 -19t188 -108v-15l189 114h168zM732 115q55 -1 108.5 15.5t102.5 41.5v1148q-45 24 -98.5 38.5
t-109.5 14.5q-134 0 -224 -52.5t-143.5 -139.5t-76.5 -191.5t-23 -209.5v-69q-1 -301 133 -449t331 -147z" />
    <glyph glyph-name="uni01A4" unicode="&#x1a4;" horiz-adv-x="2016" 
d="M280 1653h-120v67q0 151 83.5 239.5t244.5 88.5h691q195 0 334.5 -80t214.5 -219t75 -317q0 -176 -75 -315.5t-214.5 -219.5t-333.5 -80h-507v-817h-125v1932h-59q-117 0 -163 -61.5t-46 -170.5v-47zM673 933h504q236 0 369 141t133 358q0 218 -133 359t-370 141h-503
v-999z" />
    <glyph glyph-name="uni01A5" unicode="&#x1a5;" horiz-adv-x="1673" 
d="M348 1536h19v-343h14q55 148 175.5 257t319.5 109q186 0 323.5 -102t213.5 -281.5t76 -411.5t-76.5 -411.5t-214 -282t-321.5 -102.5q-196 0 -319.5 109t-176.5 258h-12v-911h-121v2112q-1 147 91 241t224 94h16q23 0 41.5 -0.5t24.5 -3.5v-144q-36 6 -36 0
q-121 -1 -191.5 -49.5t-69.5 -137.5zM368 765q0 -196 60 -351t172 -244t267 -89q157 0 269 90.5t172 245.5t60 348t-59 347t-171 243.5t-271 89.5q-157 0 -268.5 -88.5t-171 -242t-59.5 -349.5z" />
    <glyph glyph-name="uni01A6" unicode="&#x1a6;" horiz-adv-x="1955" 
d="M160 1864v280h189v-140h410q333 0 498 -154.5t166 -446.5q-1 -159 -98 -301.5t-279 -211.5l749 -1381v-16h-195l-731 1371h-520v-864h-186v1864h-3zM349 1012h410q161 0 267.5 57t160 151.5t53.5 206.5q-1 190 -109 307.5t-372 117.5h-410v-840z" />
    <glyph glyph-name="uni01A7" unicode="&#x1a7;" horiz-adv-x="1748" 
d="M348 1536q16 191 155.5 309t360.5 118q149 0 265 -54.5t182 -150t66 -218.5q0 -159 -117.5 -255t-302.5 -152l-224 -66q-153 -46 -274.5 -114t-191.5 -170.5t-70 -250.5q0 -162 84 -290t237 -201.5t361 -73.5q297 0 476 147t196 382h-128q-15 -190 -165 -301t-379 -111
q-165 0 -291 56.5t-197 157.5t-71 235q0 161 114 256t334 162l239 72q241 74 367 200t126 313q0 158 -84 280.5t-228.5 192.5t-326.5 70q-183 0 -323 -70.5t-222.5 -193t-90.5 -279.5h123z" />
    <glyph glyph-name="uni01A8" unicode="&#x1a8;" horiz-adv-x="1416" 
d="M187 1205l113 -30q42 126 133.5 199.5t249.5 73.5q169 0 276.5 -84t107.5 -219q0 -217 -296 -290l-236 -59q-366 -91 -366 -395q0 -127 69 -225t191 -153t282 -55q214 0 352 101t178 288l-117 30q-67 -307 -412 -307q-188 0 -303.5 89t-115.5 228q0 219 274 286l245 60
q188 46 282 148t94 250q0 124 -65 218t-179 147t-261 53q-195 0 -318 -92t-178 -262z" />
    <glyph glyph-name="uni01A9" unicode="&#x1a9;" horiz-adv-x="1697" 
d="M1512 149v-149h-1296v24l-20 -24h-57v208l676 772l-676 788v65h-32v147h1317v-147h-1105l696 -834v-31l-693 -819h1190z" />
    <glyph glyph-name="uni01AA" unicode="&#x1aa;" horiz-adv-x="1309" 
d="M137 1724q0 114 53.5 205t144 145t201.5 54q108 0 197.5 -54t144 -145t54.5 -205v-1839q-1 -157 43.5 -212.5t132.5 -55.5q11 0 32 3t32 9v-141q-19 -12 -62 -18.5t-66 -8.5q-158 2 -225.5 109.5t-66.5 314.5v1501q-99 -67 -216 -66q-112 0 -202.5 55t-143.5 147t-53 202
zM533 1500q90 0 152 56t62 172q0 110 -61 169t-153 59q-90 0 -152 -58t-62 -170q0 -116 62 -172t152 -56z" />
    <glyph glyph-name="uni01AB" unicode="&#x1ab;" horiz-adv-x="1001" 
d="M655 112l196 37v-90l16 -59l-16 -6v-206q-1 -116 -51.5 -198t-131 -125t-172.5 -44q-9 0 -19 0.5t-19 0.5q-22 0 -41.5 0.5t-29.5 5.5v147q24 -8 57 -8q104 0 157.5 49.5t53.5 171.5v193q-123 21 -213 114t-90 246v1086h-227v109h227v368h121v-368h323v-109h-323v-1064
q0 -112 53 -176t129 -84v9z" />
    <glyph glyph-name="uni01AC" unicode="&#x1ac;" horiz-adv-x="1880" 
d="M1720 2048v-129h-655v-1919h-128v1919h-470q-93 0 -132.5 -64.5t-38.5 -147.5v-47h-136v67q0 137 86.5 229t220.5 92h1253z" />
    <glyph glyph-name="uni01AD" unicode="&#x1ad;" horiz-adv-x="807" 
d="M804 1488v-137h-280v-979q0 -143 53.5 -192t102.5 -48q22 -1 51.5 5t50.5 10q14 3 18 4v-159q-14 -1 -57.5 -10.5t-114.5 -9.5q-66 0 -132 43t-109 138t-43 251v947h-300v137h300v79h180v-79h280zM524 1599h-180v169q0 92 47.5 174t126 134t170.5 52q2 -1 32 -6.5
t51 -13.5v-120q-19 6 -36.5 8.5t-23.5 3.5q-104 -1 -145.5 -55.5t-41.5 -176.5v-169z" />
    <glyph glyph-name="uni01AE" unicode="&#x1ae;" horiz-adv-x="1759" 
d="M943 0v-212q0 -139 75 -180t181 -41h68v-143h-94q-98 0 -179.5 53t-130 135t-48.5 169v2151h-655v116h1435v-116h-655v-1932h3z" />
    <glyph glyph-name="uni01AF" unicode="&#x1af;" horiz-adv-x="2427" 
d="M2063 2207h205q-1 -257 -112.5 -397.5t-347.5 -165.5v-952q0 -215 -100.5 -378.5t-271.5 -255t-384 -91.5q-211 0 -383 92t-272.5 255.5t-100.5 377.5v1356h125v-1356q0 -179 84 -315.5t227 -213t320 -76.5q178 0 320.5 76.5t226.5 213t84 315.5v1356h125v-223
q134 26 194.5 120.5t60.5 261.5z" />
    <glyph glyph-name="uni01B0" unicode="&#x1b0;" horiz-adv-x="1589" 
d="M1472 1593h181q0 -185 -61 -288t-241 -122v-1183h-122v249h-10q-54 -118 -174.5 -193.5t-284.5 -75.5q-226 0 -370.5 145.5t-144.5 397.5v1013h122v-1008q0 -192 117 -310.5t301 -118.5q120 0 221 54.5t162 154.5t61 237v991h122v-206q91 15 106 69.5t15 160.5v16v17z
" />
    <glyph glyph-name="uni01B1" unicode="&#x1b1;" horiz-adv-x="2112" 
d="M195 989q0 314 123.5 544.5t336.5 369.5v16h-460v129h672v-168q-148 -64 -276.5 -195t-207.5 -314t-79 -403q0 -240 96.5 -437t266.5 -313t389 -115q220 -1 389.5 115t266 313t96.5 437q0 220 -79 403t-207.5 314t-276.5 195v168h672v-129h-457v-16q211 -135 334 -367.5
t123 -546.5q0 -298 -110.5 -527.5t-304.5 -359.5t-446 -130q-251 0 -445.5 130t-305 359.5t-110.5 527.5z" />
    <glyph glyph-name="uni01B2" unicode="&#x1b2;" horiz-adv-x="1705" 
d="M851 -28q-188 0 -343.5 70t-247.5 214t-92 365v1383h183v-1383q0 -176 65.5 -287t178.5 -162.5t256 -51.5q144 0 258 51.5t180.5 162.5t66.5 287v990q-1 146 -70 207t-182 61h-9q-15 0 -33.5 -0.5t-24.5 -5.5v138q17 6 61.5 14.5t60.5 9.5q162 -1 272.5 -111t111.5 -313
v-990q-1 -166 -60.5 -288.5t-159.5 -202.5t-222.5 -119t-249.5 -39z" />
    <glyph glyph-name="uni01B3" unicode="&#x1b3;" horiz-adv-x="1831" 
d="M1447 1779l-540 -900v-879h-126v879l-702 1169h158l595 -1004h24l471 795l28 45q78 125 185 172t227 -19l-46 -117q-52 29 -120 19.5t-114 -90.5z" />
    <glyph glyph-name="uni01B4" unicode="&#x1b4;" horiz-adv-x="1717" 
d="M1269 1323l-572 -1556q-52 -141 -128 -221t-161.5 -113t-167.5 -33q-5 0 -28 2t-51 5q-33 3 -62.5 6t-30.5 2v145q8 -8 145 -8q81 0 150 16.5t125 69.5t96 162l64 173l-533 1563h130l478 -1393l442 1248l10 16q48 133 109.5 257t153.5 198t230 58q65 -22 122 -63t95 -100
l-85 -54q-41 30 -96.5 52.5t-100.5 28.5q-109 12 -172 -87t-142 -321z" />
    <glyph glyph-name="uni01B5" unicode="&#x1b5;" horiz-adv-x="1723" 
d="M201 0v103l1171 1829h-1169v116h1318v-103l-1170 -1829h1180v-116h-1330zM468 983v104h800v-104h-800z" />
    <glyph glyph-name="uni01B6" unicode="&#x1b6;" horiz-adv-x="1463" 
d="M201 0v103l904 1306v11h-854v116h1009v-105l-896 -1304v-11h932v-116h-1095zM331 716v104h800v-104h-800z" />
    <glyph glyph-name="uni01B7" unicode="&#x1b7;" horiz-adv-x="1941" 
d="M160 103h127q3 -161 92 -289.5t238.5 -203t333.5 -74.5q196 0 347 90.5t236.5 248t85.5 356.5q0 210 -102.5 373.5t-284.5 259.5t-419 103h-113v112l805 852h-1235v117h1410v-95l-814 -866v-12q260 -11 457.5 -123.5t308.5 -299t111 -421.5q0 -216 -95.5 -401
t-273.5 -298t-426 -113q-217 0 -394.5 88.5t-284 243.5t-110.5 352z" />
    <glyph glyph-name="uni01B8" unicode="&#x1b8;" horiz-adv-x="1941" 
d="M1781 103h-127q-3 -161 -92 -289.5t-238.5 -203t-333.5 -74.5q-196 0 -347 90.5t-236.5 248t-85.5 356.5q0 210 102.5 373.5t284.5 259.5t419 103h113v112l-805 852h1235v117h-1410v-95l814 -866v-12q-260 -11 -457.5 -123.5t-308.5 -299t-111 -421.5q0 -216 95.5 -401
t273.5 -298t426 -113q217 0 394.5 88.5t284 243.5t110.5 352z" />
    <glyph glyph-name="uni01B9" unicode="&#x1b9;" horiz-adv-x="1715" 
d="M1506 0h-127q-4 -126 -72 -221.5t-182.5 -149t-256.5 -53.5q-158 0 -273 64t-177.5 173.5t-62.5 245.5q0 212 162.5 354.5t494.5 142.5h58v109l-600 744v11h946v116h-1124v-95l620 -770v-11q-200 -9 -353.5 -84.5t-240.5 -207.5t-87 -309q0 -166 78.5 -302t222 -216.5
t338.5 -80.5q175 0 318 68t228.5 189.5t89.5 282.5z" />
    <glyph glyph-name="uni01BA" unicode="&#x1ba;" horiz-adv-x="1453" 
d="M187 1488h1164v-123l-537 -501q166 -28 266 -115t99 -226q1 -128 -59.5 -208t-182.5 -131t-309 -93q-202 -44 -265.5 -113t-63.5 -165q0 -102 88 -172t268 -72q84 1 170 30t146.5 97.5t68.5 187.5h187q1 -125 -66 -236t-196 -179.5t-316 -68.5q-241 0 -387 118.5
t-147 314.5q1 170 141.5 271.5t411.5 162.5q131 29 200 60.5t95 78t25 117.5q1 83 -70.5 131.5t-261.5 49.5h-179v124l666 517h-956v143z" />
    <glyph glyph-name="uni01BB" unicode="&#x1bb;" horiz-adv-x="1733" 
d="M244 0v95l663 764q142 165 225 278.5t119 206t36 191.5q0 125 -58 221t-159 150.5t-229 54.5q-134 0 -235 -59t-157.5 -160t-56.5 -227h-121q0 159 74 286t203.5 201t295.5 74q163 0 290 -71t200 -193.5t73 -276.5q0 -113 -38.5 -217.5t-131.5 -233.5t-257 -316
l-556 -641v-11h1075v-116h-1255zM736 983v104h800v-104h-800z" />
    <glyph glyph-name="uni01BC" unicode="&#x1bc;" horiz-adv-x="1607" 
d="M769 -28q-164 0 -292.5 69.5t-203 191.5t-76.5 279h123q4 -186 129 -305t320 -119q150 0 264.5 72.5t179.5 197.5t64 282q0 166 -70.5 289.5t-187 192.5t-258.5 69q-112 0 -210.5 -40.5t-166.5 -103.5l-141 20l107 865h-263v116h1237v-116h-853l-94 -767h10
q72 65 171.5 104t216.5 39q173 0 315 -84t226.5 -234t83.5 -349q0 -192 -81.5 -343t-224 -238.5t-325.5 -87.5z" />
    <glyph glyph-name="uni01BD" unicode="&#x1bd;" horiz-adv-x="1304" 
d="M375 659l-140 20l67 637h-222v172h1089v-172h-689l-43 -377q44 34 127.5 63t147.5 34q242 7 378 -132.5t137 -396.5q0 -147 -54.5 -267.5t-173 -192t-312.5 -71.5q-74 0 -161 27t-164.5 81t-127.5 134t-50 186l163 27q-4 -135 94 -221.5t246 -86.5q192 0 278 104t86 261
q0 162 -86 263.5t-262 101.5q-135 0 -208 -59.5t-120 -134.5z" />
    <glyph glyph-name="uni01BE" unicode="&#x1be;" horiz-adv-x="1453" 
d="M1100 383q0 105 -67.5 165t-151.5 113q-65 41 -126.5 88.5t-101.5 116.5t-40 175v310h-302v137h302v348h178v-348h280v-137h-280v-294q0 -92 50 -149t124 -99.5t148 -89.5t124.5 -117.5t50.5 -186.5q-1 -199 -149.5 -321t-385.5 -122q-189 0 -319 68t-196.5 180
t-65.5 243h193q4 -121 63 -191t146 -99t174 -29q173 -1 262 70.5t90 168.5z" />
    <glyph glyph-name="uni01BF" unicode="&#x1bf;" horiz-adv-x="1695" 
d="M429 -215v-357h-177v1399l-13 -20q5 60 13 115v566h156l12 -157q160 185 451 185q187 0 315 -96.5t193.5 -269t64.5 -399.5v-23q0 -207 -71.5 -353.5t-205 -251t-320.5 -184.5t-418 -154zM429 1138v-1213q238 75 427.5 173.5t300 248.5t110.5 381v23q0 165 -51.5 303.5
t-154 222t-258.5 83.5q-131 0 -222.5 -65.5t-151.5 -156.5z" />
    <glyph glyph-name="uni01C0" unicode="&#x1c0;" horiz-adv-x="684" 
d="M444 2072v-2072h-201v2072h201z" />
    <glyph glyph-name="uni01C1" unicode="&#x1c1;" horiz-adv-x="941" 
d="M347 2072v-2072h-201v2072h201zM721 2072v-2072h-201v2072h201z" />
    <glyph glyph-name="uni01C2" unicode="&#x1c2;" horiz-adv-x="416" 
d="M297 2072v-2072h-201v2072h201zM-165 1339v104h800v-104h-800zM-197 629v104h800v-104h-800z" />
    <glyph glyph-name="uni01C3" unicode="&#x1c3;" horiz-adv-x="752" 
d="M443 2048l-7 -1451h-120l-7 1451h134zM376 -13q-45 0 -76.5 31.5t-31.5 76.5q0 44 31.5 76t76.5 32q44 0 76 -32t32 -76q0 -45 -32 -76.5t-76 -31.5z" />
    <glyph glyph-name="uni01C5" unicode="&#x1c5;" horiz-adv-x="3479" 
d="M864 0h-568v2048h612q288 0 493 -121.5t314.5 -349.5t108.5 -546q-1 -487 -252 -759t-708 -272zM421 116h438q411 0 627.5 243t214.5 672q-1 422 -206.5 661.5t-591.5 239.5h-482v-1816zM2217 0v103l904 1306v11h-854v116h1009v-105l-896 -1304v-11h932v-116h-1095z
M2478 2125l269 -298l269 298h126v-10l-354 -390h-82l-354 390v10h126z" />
    <glyph glyph-name="uni01C6" unicode="&#x1c6;" horiz-adv-x="2929" 
d="M780 -32q-185 0 -323 102t-213.5 282t-75.5 412t76.5 411t214.5 281.5t322 102.5q197 0 319.5 -108.5t175.5 -257.5h12v855h121v-2048h-118v335h-15q-55 -148 -177 -257.5t-319 -109.5zM791 81q156 0 267.5 89t171 244t59.5 351t-59.5 349.5t-171 242t-267.5 88.5
q-158 0 -270.5 -89.5t-172 -243.5t-59.5 -347t59.5 -348t172 -245.5t270.5 -90.5zM1668 0v103l904 1306v11h-854v116h1009v-105l-896 -1304v-11h932v-116h-1095zM1929 2125l269 -298l269 298h126v-10l-354 -390h-82l-354 390v10h126z" />
    <glyph glyph-name="uni01C7" unicode="&#x1c7;" horiz-adv-x="3069" 
d="M296 0v2048h125v-1932h1000v-116h-1125zM2648 2048h125v-1491q0 -204 -70.5 -333t-189 -190.5t-265.5 -61.5q-150 0 -268.5 56.5t-187 156.5t-68.5 231h124q-1 -143 114 -235.5t286 -92.5q111 0 201.5 47t144.5 150t54 272v1491z" />
    <glyph glyph-name="uni01C8" unicode="&#x1c8;" horiz-adv-x="2223" 
d="M296 0v2048h125v-1932h1000v-116h-1125zM1843 1536h121v-1723q0 -178 -106.5 -283.5t-274.5 -105.5q-8 0 -17 0.5t-21 2.5l6 113h30q113 0 187.5 72.5t74.5 200.5v1723zM1903 1808q-40 0 -69.5 28t-29.5 68t29.5 68t69.5 28q41 0 69.5 -28t28.5 -68t-28.5 -68t-69.5 -28z
" />
    <glyph glyph-name="uni01C9" unicode="&#x1c9;" horiz-adv-x="1215" 
d="M375 2048v-2048h-122v2048h122zM900 1536h121v-1723q0 -178 -106.5 -283.5t-274.5 -105.5q-8 0 -17 0.5t-21 2.5l6 113h30q113 0 187.5 72.5t74.5 200.5v1723zM960 1808q-40 0 -69.5 28t-29.5 68t29.5 68t69.5 28q41 0 69.5 -28t28.5 -68t-28.5 -68t-69.5 -28z" />
    <glyph glyph-name="uni01CA" unicode="&#x1ca;" horiz-adv-x="3643" 
d="M1861 2048v-2048h-122l-1306 1821h-12v-1821h-125v2048h123l1306 -1823h12v1823h124zM3221 2048h125v-1491q0 -204 -70.5 -333t-189 -190.5t-265.5 -61.5q-150 0 -268.5 56.5t-187 156.5t-68.5 231h124q-1 -143 114 -235.5t286 -92.5q111 0 201.5 47t144.5 150t54 272
v1491z" />
    <glyph glyph-name="uni01CB" unicode="&#x1cb;" horiz-adv-x="2711" 
d="M1861 2048v-2048h-122l-1306 1821h-12v-1821h-125v2048h123l1306 -1823h12v1823h124zM2395 1536h121v-1723q0 -178 -106.5 -283.5t-274.5 -105.5q-8 0 -17 0.5t-21 2.5l6 113h30q113 0 187.5 72.5t74.5 200.5v1723zM2455 1808q-40 0 -69.5 28t-29.5 68t29.5 68t69.5 28
q41 0 69.5 -28t28.5 -68t-28.5 -68t-69.5 -28z" />
    <glyph glyph-name="uni01CC" unicode="&#x1cc;" horiz-adv-x="2255" 
d="M375 996v-996h-122v1536h119v-243h12q54 119 173 191t283 72q232 0 377.5 -145.5t145.5 -397.5v-1013h-122v1008q0 197 -116.5 316t-307.5 119q-192 0 -317 -123t-125 -324zM1875 1536h121v-1723q0 -178 -106.5 -283.5t-274.5 -105.5q-8 0 -17 0.5t-21 2.5l6 113h30
q113 0 187.5 72.5t74.5 200.5v1723zM1935 1808q-40 0 -69.5 28t-29.5 68t29.5 68t69.5 28q41 0 69.5 -28t28.5 -68t-28.5 -68t-69.5 -28z" />
    <glyph glyph-name="uni01CD" unicode="&#x1cd;" horiz-adv-x="1792" 
d="M217 0h-132l739 2048h144l739 -2048h-132l-234 655h-890zM492 771h808l-399 1116h-10zM627 2637l269 -298l269 298h126v-10l-354 -390h-82l-354 390v10h126z" />
    <glyph glyph-name="uni01CE" unicode="&#x1ce;" horiz-adv-x="1545" 
d="M660 -33q-132 0 -243 53t-177.5 155t-66.5 248q0 192 139.5 295.5t446.5 140.5q117 14 209 28t144.5 42.5t52.5 87.5v64q0 167 -106 266.5t-292 99.5q-164 0 -277 -72.5t-158 -186.5l-115 43q66 166 217.5 247t329.5 81q137 0 256 -51.5t193 -159t74 -275.5v-1073h-122
v277h-9q-60 -129 -186.5 -219.5t-309.5 -90.5zM672 80q144 0 255.5 70.5t174.5 193.5t63 279v226q-48 -40 -164.5 -62.5t-229.5 -35.5q-252 -30 -364 -109.5t-112 -222.5q0 -157 108 -248t269 -91zM511 2125l269 -298l269 298h126v-10l-354 -390h-82l-354 390v10h126z" />
    <glyph glyph-name="uni01CF" unicode="&#x1cf;" horiz-adv-x="717" 
d="M421 2048v-2048h-125v2048h125zM90 2637l269 -298l269 298h126v-10l-354 -390h-82l-354 390v10h126z" />
    <glyph glyph-name="uni01D0" unicode="&#x1d0;" horiz-adv-x="639" 
d="M259 0v1536h121v-1536h-121zM51 2125l269 -298l269 298h126v-10l-354 -390h-82l-354 390v10h126z" />
    <glyph glyph-name="uni01D1" unicode="&#x1d1;" horiz-adv-x="2117" 
d="M1925 1024q0 -316 -110 -553t-305.5 -368t-450.5 -131q-256 0 -451.5 131.5t-305.5 368t-110 552.5q0 317 110 553.5t305.5 367.5t451.5 131q255 0 450.5 -131t305.5 -367.5t110 -553.5zM1803 1024q0 285 -96 494t-263.5 323.5t-384.5 114.5t-385 -114t-263.5 -323
t-95.5 -495q0 -283 95 -492.5t262.5 -324.5t386.5 -115q217 0 385 114.5t263.5 324t95.5 493.5zM790 2637l269 -298l269 298h126v-10l-354 -390h-82l-354 390v10h126z" />
    <glyph glyph-name="uni01D2" unicode="&#x1d2;" horiz-adv-x="1648" 
d="M824 -32q-190 0 -338 102.5t-233 282.5t-85 410q0 231 85 411t233 282.5t338 102.5t338 -103t233 -282.5t85 -410.5q0 -230 -85 -410t-233 -282.5t-338 -102.5zM824 81q162 0 282 91t186.5 246t66.5 345t-66.5 344.5t-187 246t-281.5 91.5q-160 0 -280.5 -91.5
t-187.5 -246t-67 -344.5t66.5 -345t187 -246t281.5 -91zM555 2125l269 -298l269 298h126v-10l-354 -390h-82l-354 390v10h126z" />
    <glyph glyph-name="uni01D3" unicode="&#x1d3;" horiz-adv-x="2104" 
d="M1683 2048h125v-1356q0 -215 -100.5 -378.5t-271.5 -255t-384 -91.5q-211 0 -383 92t-272.5 255.5t-100.5 377.5v1356h125v-1356q0 -179 84 -315.5t227 -213t320 -76.5q178 0 320.5 76.5t226.5 213t84 315.5v1356zM783 2637l269 -298l269 298h126v-10l-354 -390h-82
l-354 390v10h126z" />
    <glyph glyph-name="uni01D4" unicode="&#x1d4;" horiz-adv-x="1612" 
d="M1237 545v991h122v-1536h-122v249h-10q-54 -118 -174.5 -193.5t-284.5 -75.5q-226 0 -370.5 145.5t-144.5 397.5v1013h122v-1008q0 -192 117 -310.5t301 -118.5q120 0 221 54.5t162 154.5t61 237zM538 2125l269 -298l269 298h126v-10l-354 -390h-82l-354 390v10h126z" />
    <glyph glyph-name="uni01D5" unicode="&#x1d5;" horiz-adv-x="2104" 
d="M1683 2048h125v-1356q0 -215 -100.5 -378.5t-271.5 -255t-384 -91.5q-211 0 -383 92t-272.5 255.5t-100.5 377.5v1356h125v-1356q0 -179 84 -315.5t227 -213t320 -76.5q178 0 320.5 76.5t226.5 213t84 315.5v1356zM829 2320q-38 0 -67 29t-29 67q0 41 29 68.5t67 27.5
q41 0 68.5 -27.5t27.5 -68.5q0 -38 -27.5 -67t-68.5 -29zM1277 2320q-38 0 -67 29t-29 67q0 41 29 68.5t67 27.5q41 0 68.5 -27.5t27.5 -68.5q0 -38 -27.5 -67t-68.5 -29zM1423 2900v-109h-739v109h739z" />
    <glyph glyph-name="uni01D6" unicode="&#x1d6;" horiz-adv-x="1612" 
d="M1237 545v991h122v-1536h-122v249h-10q-54 -118 -174.5 -193.5t-284.5 -75.5q-226 0 -370.5 145.5t-144.5 397.5v1013h122v-1008q0 -192 117 -310.5t301 -118.5q120 0 221 54.5t162 154.5t61 237zM584 1808q-38 0 -67 29t-29 67q0 41 29 68.5t67 27.5q41 0 68.5 -27.5
t27.5 -68.5q0 -38 -27.5 -67t-68.5 -29zM1032 1808q-38 0 -67 29t-29 67q0 41 29 68.5t67 27.5q41 0 68.5 -27.5t27.5 -68.5q0 -38 -27.5 -67t-68.5 -29zM1178 2388v-109h-739v109h739z" />
    <glyph glyph-name="uni01D7" unicode="&#x1d7;" horiz-adv-x="2104" 
d="M1683 2048h125v-1356q0 -215 -100.5 -378.5t-271.5 -255t-384 -91.5q-211 0 -383 92t-272.5 255.5t-100.5 377.5v1356h125v-1356q0 -179 84 -315.5t227 -213t320 -76.5q178 0 320.5 76.5t226.5 213t84 315.5v1356zM991 2576l254 272h154l-288 -272h-120zM820 2202
q-38 0 -67 29t-29 67q0 41 29 68.5t67 27.5q41 0 68.5 -27.5t27.5 -68.5q0 -38 -27.5 -67t-68.5 -29zM1268 2202q-38 0 -67 29t-29 67q0 41 29 68.5t67 27.5q41 0 68.5 -27.5t27.5 -68.5q0 -38 -27.5 -67t-68.5 -29z" />
    <glyph glyph-name="uni01D8" unicode="&#x1d8;" horiz-adv-x="1612" 
d="M1237 545v991h122v-1536h-122v249h-10q-54 -118 -174.5 -193.5t-284.5 -75.5q-226 0 -370.5 145.5t-144.5 397.5v1013h122v-1008q0 -192 117 -310.5t301 -118.5q120 0 221 54.5t162 154.5t61 237zM583 1808q-38 0 -67 29t-29 67q0 41 29 68.5t67 27.5q41 0 68.5 -27.5
t27.5 -68.5q0 -38 -27.5 -67t-68.5 -29zM1031 1808q-38 0 -67 29t-29 67q0 41 29 68.5t67 27.5q41 0 68.5 -27.5t27.5 -68.5q0 -38 -27.5 -67t-68.5 -29zM738 2267l268 442h146l-302 -442h-112z" />
    <glyph glyph-name="uni01D9" unicode="&#x1d9;" horiz-adv-x="2104" 
d="M1683 2048h125v-1356q0 -215 -100.5 -378.5t-271.5 -255t-384 -91.5q-211 0 -383 92t-272.5 255.5t-100.5 377.5v1356h125v-1356q0 -179 84 -315.5t227 -213t320 -76.5q178 0 320.5 76.5t226.5 213t84 315.5v1356zM837 2836l208 -185l211 185h153v-24l-320 -289h-88
l-313 280v33h149zM585 2408q0 64 32.5 107t99.5 44q72 -1 105.5 -44t33.5 -107q0 -59 -32 -99.5t-103 -40.5q-75 0 -105.5 42.5t-30.5 97.5zM1251 2405q0 62 34 104.5t104 42.5q69 0 100.5 -43t31.5 -101q0 -55 -29 -100t-103 -44q-70 -1 -104 41t-34 100z" />
    <glyph glyph-name="uni01DA" unicode="&#x1da;" horiz-adv-x="1612" 
d="M1237 545v991h122v-1536h-122v249h-10q-54 -118 -174.5 -193.5t-284.5 -75.5q-226 0 -370.5 145.5t-144.5 397.5v1013h122v-1008q0 -192 117 -310.5t301 -118.5q120 0 221 54.5t162 154.5t61 237zM612 2511l195 -259l195 259h156v-16l-299 -375h-101l-292 375v16h146z
M942 1892q0 56 30.5 98t102.5 42q73 0 104 -42t29 -98q2 -52 -29 -90.5t-104 -38.5q-72 0 -102.5 38.5t-30.5 90.5zM426 1899q0 51 28 92t101 41q72 0 102.5 -39t30.5 -94t-30 -92.5t-103 -37.5q-69 0 -99 36.5t-30 93.5z" />
    <glyph glyph-name="uni01DB" unicode="&#x1db;" horiz-adv-x="2104" 
d="M1683 2048h125v-1356q0 -215 -100.5 -378.5t-271.5 -255t-384 -91.5q-211 0 -383 92t-272.5 255.5t-100.5 377.5v1356h125v-1356q0 -179 84 -315.5t227 -213t320 -76.5q178 0 320.5 76.5t226.5 213t84 315.5v1356zM585 2408q1 64 33 107t99 44q73 -1 105.5 -44t30.5 -107
q2 -59 -29.5 -99.5t-103.5 -40.5q-73 0 -103.5 42.5t-31.5 97.5zM1250 2405q2 60 34 103.5t105 43.5q67 0 100 -42.5t32 -101.5q1 -56 -30 -100.5t-102 -43.5q-73 -1 -105 41.5t-34 99.5zM966 2787l174 -344h-144l-250 344h220z" />
    <glyph glyph-name="uni01DC" unicode="&#x1dc;" horiz-adv-x="1612" 
d="M1237 545v991h122v-1536h-122v249h-10q-54 -118 -174.5 -193.5t-284.5 -75.5q-226 0 -370.5 145.5t-144.5 397.5v1013h122v-1008q0 -192 117 -310.5t301 -118.5q120 0 221 54.5t162 154.5t61 237zM670 2507l260 -395h-164l-345 395h249zM941 1892q1 55 31 97.5t102 42.5
q74 0 105 -42t31 -98q0 -52 -31 -90.5t-105 -38.5q-70 0 -101 38.5t-32 90.5zM425 1899q1 51 29 92t100 41q74 0 104 -39t30 -94q0 -57 -30 -93.5t-104 -36.5q-67 0 -97.5 36.5t-31.5 93.5z" />
    <glyph glyph-name="uni01DD" unicode="&#x1dd;" horiz-adv-x="1629" 
d="M777 1568q208 0 362 -103t238 -282t84 -408q0 -230 -84.5 -410t-232.5 -284t-338 -104q-172 0 -317 90.5t-233 257t-88 394.5v76h1172q-3 189 -70.5 338t-193 235.5t-299.5 86.5q-125 0 -214.5 -42.5t-147.5 -103.5t-86 -118l-111 45q35 77 108.5 154t186 127.5
t264.5 50.5zM1338 684h-1048q0 -167 68 -301t185 -213t263 -79t261.5 78.5t187 213t83.5 301.5z" />
    <glyph glyph-name="uni01DE" unicode="&#x1de;" horiz-adv-x="1792" 
d="M217 0h-132l739 2048h144l739 -2048h-132l-234 655h-890zM492 771h808l-399 1116h-10zM673 2320q-38 0 -67 29t-29 67q0 41 29 68.5t67 27.5q41 0 68.5 -27.5t27.5 -68.5q0 -38 -27.5 -67t-68.5 -29zM1121 2320q-38 0 -67 29t-29 67q0 41 29 68.5t67 27.5
q41 0 68.5 -27.5t27.5 -68.5q0 -38 -27.5 -67t-68.5 -29zM1267 2900v-109h-739v109h739z" />
    <glyph glyph-name="uni01DF" unicode="&#x1df;" horiz-adv-x="1545" 
d="M660 -33q-132 0 -243 53t-177.5 155t-66.5 248q0 192 139.5 295.5t446.5 140.5q117 14 209 28t144.5 42.5t52.5 87.5v64q0 167 -106 266.5t-292 99.5q-164 0 -277 -72.5t-158 -186.5l-115 43q66 166 217.5 247t329.5 81q137 0 256 -51.5t193 -159t74 -275.5v-1073h-122
v277h-9q-60 -129 -186.5 -219.5t-309.5 -90.5zM672 80q144 0 255.5 70.5t174.5 193.5t63 279v226q-48 -40 -164.5 -62.5t-229.5 -35.5q-252 -30 -364 -109.5t-112 -222.5q0 -157 108 -248t269 -91zM557 1808q-38 0 -67 29t-29 67q0 41 29 68.5t67 27.5q41 0 68.5 -27.5
t27.5 -68.5q0 -38 -27.5 -67t-68.5 -29zM1005 1808q-38 0 -67 29t-29 67q0 41 29 68.5t67 27.5q41 0 68.5 -27.5t27.5 -68.5q0 -38 -27.5 -67t-68.5 -29zM1151 2388v-109h-739v109h739z" />
    <glyph glyph-name="uni01E0" unicode="&#x1e0;" horiz-adv-x="1792" 
d="M217 0h-132l739 2048h144l739 -2048h-132l-234 655h-890zM492 771h808l-399 1116h-10zM897 2192q-40 0 -69.5 28t-29.5 68t29.5 68t69.5 28q41 0 69.5 -28t28.5 -68t-28.5 -68t-69.5 -28zM1266 2720v-109h-739v109h739z" />
    <glyph glyph-name="uni01E1" unicode="&#x1e1;" horiz-adv-x="1545" 
d="M660 -33q-132 0 -243 53t-177.5 155t-66.5 248q0 192 139.5 295.5t446.5 140.5q117 14 209 28t144.5 42.5t52.5 87.5v64q0 167 -106 266.5t-292 99.5q-164 0 -277 -72.5t-158 -186.5l-115 43q66 166 217.5 247t329.5 81q137 0 256 -51.5t193 -159t74 -275.5v-1073h-122
v277h-9q-60 -129 -186.5 -219.5t-309.5 -90.5zM672 80q144 0 255.5 70.5t174.5 193.5t63 279v226q-48 -40 -164.5 -62.5t-229.5 -35.5q-252 -30 -364 -109.5t-112 -222.5q0 -157 108 -248t269 -91zM782 1700q-40 0 -69.5 28t-29.5 68t29.5 68t69.5 28q41 0 69.5 -28
t28.5 -68t-28.5 -68t-69.5 -28zM1151 2228v-109h-739v109h739z" />
    <glyph glyph-name="uni01E2" unicode="&#x1e2;" horiz-adv-x="2729" 
d="M85 0l1027 2048h1396v-116h-1015v-849h954v-116h-954v-851h1039v-116h-1164v655h-818l-326 -655h-139zM608 771h760v1161h-183zM2128 2469v-109h-739v109h739z" />
    <glyph glyph-name="uni01E3" unicode="&#x1e3;" horiz-adv-x="2599" 
d="M1821 -32q-217 0 -373.5 111t-227.5 293q-69 -205 -227 -305t-333 -100q-132 0 -243 53t-177.5 155t-66.5 248q0 192 139.5 295.5t446.5 140.5q117 14 209 28t144.5 43t52.5 87v64q0 167 -106 266.5t-292 99.5q-164 0 -277 -72.5t-158 -186.5l-115 43q66 166 217.5 247
t329.5 81q176 0 313.5 -84.5t183.5 -248.5q82 154 219 243.5t312 89.5q172 0 317.5 -90.5t233.5 -257t88 -394.5v-76h-1171v-21q6 -185 74.5 -329t192 -227t294.5 -83q126 0 215.5 42.5t147 103.5t85.5 118l111 -45q-34 -77 -108 -154t-186.5 -127.5t-264.5 -50.5zM1268 914
l-3 -62h1043q0 166 -68 300.5t-184.5 213.5t-263.5 79q-137 0 -247.5 -69.5t-182.5 -189.5t-94 -272zM672 80q144 0 255.5 70.5t174.5 193.5t63 279v226q-48 -40 -164.5 -62.5t-229.5 -35.5q-252 -30 -364 -109.5t-112 -222.5q0 -157 108 -248t269 -91zM1664 1957v-109h-739
v109h739z" />
    <glyph glyph-name="uni01E4" unicode="&#x1e4;" horiz-adv-x="2084" 
d="M2019 581v-109h-209q-88 -238 -284.5 -369t-458.5 -131q-264 0 -461 131t-305.5 367.5t-108.5 553.5q0 318 109 554.5t303.5 367t451.5 130.5q232 0 401 -99t271 -252t131 -317h-128q-31 138 -118 263.5t-227 205t-330 79.5q-217 0 -384.5 -114t-262 -323t-94.5 -495
q0 -283 94 -492.5t263.5 -324.5t394.5 -115q207 0 366.5 99t242.5 281h-577v109h616q35 122 36 263h-652v116h774v-116q0 -139 -30 -263h176z" />
    <glyph glyph-name="uni01E5" unicode="&#x1e5;" horiz-adv-x="1668" 
d="M807 -608q-215 0 -362 83t-210 225l102 60q50 -112 167.5 -184t302.5 -72q222 0 351.5 114.5t129.5 350.5v382h-12q-53 -149 -180 -246t-316 -97q-182 0 -320 94t-215 265t-77 401q0 231 75.5 409.5t213.5 280t324 101.5q200 0 320.5 -108.5t175.5 -257.5h14v343h118
v-1572q0 -289 -166.5 -430.5t-435.5 -141.5zM791 121q231 0 364.5 174t133.5 474q0 194 -59.5 347t-170.5 241t-268 88q-159 0 -271.5 -89.5t-171.5 -242.5t-59 -344q0 -192 60 -338t172.5 -228t269.5 -82zM951 719v104h800v-104h-800z" />
    <glyph glyph-name="uni01E6" unicode="&#x1e6;" horiz-adv-x="2084" 
d="M1731 1408q-31 138 -118 263.5t-227 205t-330 79.5q-217 0 -384.5 -114t-262 -323t-94.5 -495q0 -283 94 -492.5t263.5 -324.5t394.5 -115q198 0 352 90t242 258.5t90 403.5h-652v116h774v-116q0 -271 -104 -466.5t-285.5 -300.5t-416.5 -105q-264 0 -461 131
t-305.5 367.5t-108.5 553.5q0 318 109 554.5t303.5 367t451.5 130.5q232 0 401 -99t271 -252t131 -317h-128zM779 2637l269 -298l269 298h126v-10l-354 -390h-82l-354 390v10h126z" />
    <glyph glyph-name="uni01E7" unicode="&#x1e7;" horiz-adv-x="1668" 
d="M807 -608q-215 0 -362 83t-210 225l102 60q50 -112 167.5 -184t302.5 -72q222 0 351.5 114.5t129.5 350.5v382h-12q-53 -149 -180 -246t-316 -97q-182 0 -320 94t-215 265t-77 401q0 231 75.5 409.5t213.5 280t324 101.5q200 0 320.5 -108.5t175.5 -257.5h14v343h118
v-1572q0 -289 -166.5 -430.5t-435.5 -141.5zM791 121q231 0 364.5 174t133.5 474q0 194 -59.5 347t-170.5 241t-268 88q-159 0 -271.5 -89.5t-171.5 -242.5t-59 -344q0 -192 60 -338t172.5 -228t269.5 -82zM564 2125l269 -298l269 298h126v-10l-354 -390h-82l-354 390v10
h126z" />
    <glyph glyph-name="uni01E8" unicode="&#x1e8;" horiz-adv-x="1769" 
d="M296 0v2048h125v-1189h14l1080 1189h166l-889 -969l881 -1079h-156l-805 989l-291 -322v-667h-125zM624 2637l269 -298l269 298h126v-10l-354 -390h-82l-354 390v10h126z" />
    <glyph glyph-name="uni01E9" unicode="&#x1e9;" horiz-adv-x="1425" 
d="M253 0v2048h122v-1273h14l768 761h159l-665 -660l697 -876h-156l-630 796l-187 -181v-615h-122zM46 2637l269 -298l269 298h126v-10l-354 -390h-82l-354 390v10h126z" />
    <glyph glyph-name="uni01EA" unicode="&#x1ea;" horiz-adv-x="2117" 
d="M1925 1024q0 -316 -110 -553t-305.5 -368t-450.5 -131q-256 0 -451.5 131.5t-305.5 368t-110 552.5q0 317 110 553.5t305.5 367.5t451.5 131q255 0 450.5 -131t305.5 -367.5t110 -553.5zM1803 1024q0 285 -96 494t-263.5 323.5t-384.5 114.5t-385 -114t-263.5 -323
t-95.5 -495q0 -283 95 -492.5t262.5 -324.5t386.5 -115q217 0 385 114.5t263.5 324t95.5 493.5zM1038 -635q-118 2 -192.5 68.5t-59.5 195.5q17 105 120 206.5t345 211.5l-31 -63q-87 -80 -165.5 -169.5t-79.5 -193.5q1 -42 21 -67t88 -26q53 1 94.5 15.5t63.5 28.5l-3 -147
q-31 -19 -82 -38.5t-119 -21.5z" />
    <glyph glyph-name="uni01EB" unicode="&#x1eb;" horiz-adv-x="1648" 
d="M824 -32q-190 0 -338 102.5t-233 282.5t-85 410q0 231 85 411t233 282.5t338 102.5t338 -103t233 -282.5t85 -410.5q0 -230 -85 -410t-233 -282.5t-338 -102.5zM824 81q162 0 282 91t186.5 246t66.5 345t-66.5 344.5t-187 246t-281.5 91.5q-160 0 -280.5 -91.5
t-187.5 -246t-67 -344.5t66.5 -345t187 -246t281.5 -91zM839 -619q-118 2 -192.5 68.5t-59.5 195.5q17 105 120 206.5t345 211.5l-31 -63q-87 -80 -165.5 -169.5t-79.5 -193.5q1 -42 21 -67t88 -26q53 1 94.5 15.5t63.5 28.5l-3 -147q-31 -19 -82 -38.5t-119 -21.5z" />
    <glyph glyph-name="uni01EC" unicode="&#x1ec;" horiz-adv-x="2117" 
d="M1925 1024q0 -316 -110 -553t-305.5 -368t-450.5 -131q-256 0 -451.5 131.5t-305.5 368t-110 552.5q0 317 110 553.5t305.5 367.5t451.5 131q255 0 450.5 -131t305.5 -367.5t110 -553.5zM1803 1024q0 285 -96 494t-263.5 323.5t-384.5 114.5t-385 -114t-263.5 -323
t-95.5 -495q0 -283 95 -492.5t262.5 -324.5t386.5 -115q217 0 385 114.5t263.5 324t95.5 493.5zM1038 -635q-118 2 -192.5 68.5t-59.5 195.5q17 105 120 206.5t345 211.5l-31 -63q-87 -80 -165.5 -169.5t-79.5 -193.5q1 -42 21 -67t88 -26q53 1 94.5 15.5t63.5 28.5l-3 -147
q-31 -19 -82 -38.5t-119 -21.5zM1428 2469v-109h-739v109h739z" />
    <glyph glyph-name="uni01ED" unicode="&#x1ed;" horiz-adv-x="1648" 
d="M824 -32q-190 0 -338 102.5t-233 282.5t-85 410q0 231 85 411t233 282.5t338 102.5t338 -103t233 -282.5t85 -410.5q0 -230 -85 -410t-233 -282.5t-338 -102.5zM824 81q162 0 282 91t186.5 246t66.5 345t-66.5 344.5t-187 246t-281.5 91.5q-160 0 -280.5 -91.5
t-187.5 -246t-67 -344.5t66.5 -345t187 -246t281.5 -91zM839 -619q-118 2 -192.5 68.5t-59.5 195.5q17 105 120 206.5t345 211.5l-31 -63q-87 -80 -165.5 -169.5t-79.5 -193.5q1 -42 21 -67t88 -26q53 1 94.5 15.5t63.5 28.5l-3 -147q-31 -19 -82 -38.5t-119 -21.5z
M1194 1957v-109h-739v109h739z" />
    <glyph glyph-name="uni01EE" unicode="&#x1ee;" horiz-adv-x="1941" 
d="M160 103h127q3 -161 92 -289.5t238.5 -203t333.5 -74.5q196 0 347 90.5t236.5 248t85.5 356.5q0 210 -102.5 373.5t-284.5 259.5t-419 103h-113v112l805 852h-1235v117h1410v-95l-814 -866v-12q260 -11 457.5 -123.5t308.5 -299t111 -421.5q0 -216 -95.5 -401
t-273.5 -298t-426 -113q-217 0 -394.5 88.5t-284 243.5t-110.5 352zM702 2637l269 -298l269 298h126v-10l-354 -390h-82l-354 390v10h126z" />
    <glyph glyph-name="uni01EF" unicode="&#x1ef;" horiz-adv-x="1715" 
d="M209 0h127q4 -126 72 -221.5t182.5 -149t256.5 -53.5q158 0 273 64t177.5 173.5t62.5 245.5q0 212 -162.5 354.5t-494.5 142.5h-58v109l600 744v11h-946v116h1124v-95l-620 -770v-11q200 -9 353.5 -84.5t240.5 -207.5t87 -309q0 -166 -78.5 -302t-222 -216.5
t-338.5 -80.5q-175 0 -318 68t-228.5 189.5t-89.5 282.5zM588 2125l269 -298l269 298h126v-10l-354 -390h-82l-354 390v10h126z" />
    <glyph glyph-name="uni01F0" unicode="&#x1f0;" horiz-adv-x="639" 
d="M259 1536h121v-1723q0 -178 -106.5 -283.5t-274.5 -105.5q-8 0 -17 0.5t-21 2.5l6 113h30q113 0 187.5 72.5t74.5 200.5v1723zM50 2125l269 -298l269 298h126v-10l-354 -390h-82l-354 390v10h126z" />
    <glyph glyph-name="uni01F1" unicode="&#x1f1;" horiz-adv-x="3739" 
d="M864 0h-568v2048h612q288 0 493 -121.5t314.5 -349.5t108.5 -546q-1 -487 -252 -759t-708 -272zM421 116h438q411 0 627.5 243t214.5 672q-1 422 -206.5 661.5t-591.5 239.5h-482v-1816zM2217 0v103l1171 1829h-1169v116h1318v-103l-1170 -1829h1180v-116h-1330z" />
    <glyph glyph-name="uni01F2" unicode="&#x1f2;" horiz-adv-x="3479" 
d="M864 0h-568v2048h612q288 0 493 -121.5t314.5 -349.5t108.5 -546q-1 -487 -252 -759t-708 -272zM421 116h438q411 0 627.5 243t214.5 672q-1 422 -206.5 661.5t-591.5 239.5h-482v-1816zM2217 0v103l904 1306v11h-854v116h1009v-105l-896 -1304v-11h932v-116h-1095z" />
    <glyph glyph-name="uni01F4" unicode="&#x1f4;" horiz-adv-x="2084" 
d="M1731 1408q-31 138 -118 263.5t-227 205t-330 79.5q-217 0 -384.5 -114t-262 -323t-94.5 -495q0 -283 94 -492.5t263.5 -324.5t394.5 -115q198 0 352 90t242 258.5t90 403.5h-652v116h774v-116q0 -271 -104 -466.5t-285.5 -300.5t-416.5 -105q-264 0 -461 131
t-305.5 367.5t-108.5 553.5q0 318 109 554.5t303.5 367t451.5 130.5q232 0 401 -99t271 -252t131 -317h-128zM980 2267l268 442h146l-302 -442h-112z" />
    <glyph glyph-name="uni01F5" unicode="&#x1f5;" horiz-adv-x="1668" 
d="M807 -608q-215 0 -362 83t-210 225l102 60q50 -112 167.5 -184t302.5 -72q222 0 351.5 114.5t129.5 350.5v382h-12q-53 -149 -180 -246t-316 -97q-182 0 -320 94t-215 265t-77 401q0 231 75.5 409.5t213.5 280t324 101.5q200 0 320.5 -108.5t175.5 -257.5h14v343h118
v-1572q0 -289 -166.5 -430.5t-435.5 -141.5zM791 121q231 0 364.5 174t133.5 474q0 194 -59.5 347t-170.5 241t-268 88q-159 0 -271.5 -89.5t-171.5 -242.5t-59 -344q0 -192 60 -338t172.5 -228t269.5 -82zM765 1755l268 442h146l-302 -442h-112z" />
    <glyph glyph-name="uni01F6" unicode="&#x1f6;" horiz-adv-x="3119" 
d="M2271 -28q-180 0 -319.5 71t-218.5 215t-78 363v343h-1236v-964h-123v2048h123v-957h1236v957h125v-1427q-1 -270 128 -391t363 -121q235 0 355.5 121t120.5 391v942h125v-942q0 -224 -79 -368t-215 -212.5t-307 -68.5z" />
    <glyph glyph-name="uni01F7" unicode="&#x1f7;" horiz-adv-x="1555" 
d="M295 2004v-52q82 40 174 60t203 20q364 0 570.5 -194.5t206.5 -609.5v-72q0 -267 -93.5 -506t-255.5 -428t-369.5 -309t-435.5 -148v-337h-192v2576h192zM295 -80q256 48 441 179.5t304 311t175.5 375t56.5 370.5v76q1 255 -74.5 395.5t-210.5 196.5t-315 56
q-157 0 -244.5 -48t-132.5 -137v-1775z" />
    <glyph glyph-name="uni01F8" unicode="&#x1f8;" horiz-adv-x="2157" 
d="M1861 2048v-2048h-122l-1306 1821h-12v-1821h-125v2048h123l1306 -1823h12v1823h124zM1147 2267h-112l-302 442h146z" />
    <glyph glyph-name="uni01F9" unicode="&#x1f9;" horiz-adv-x="1616" 
d="M375 996v-996h-122v1536h119v-243h12q54 119 173 191t283 72q232 0 377.5 -145.5t145.5 -397.5v-1013h-122v1008q0 197 -116.5 316t-307.5 119q-192 0 -317 -123t-125 -324zM879 1755h-112l-302 442h146z" />
    <glyph glyph-name="uni01FA" unicode="&#x1fa;" horiz-adv-x="1792" 
d="M217 0h-132l739 2048h144l739 -2048h-132l-234 655h-890zM492 771h808l-399 1116h-10zM896 2165q-92 0 -159 66t-66 161q-1 92 66 158t159 66q93 0 158 -66t65 -158q0 -95 -65 -161t-158 -66zM825 2659l152 221h203l-248 -221h-107zM896 2296q41 -1 67 27.5t26 68.5
q0 35 -26 63t-67 29q-39 -1 -67.5 -29t-28.5 -63q0 -40 28.5 -68.5t67.5 -27.5z" />
    <glyph glyph-name="uni01FB" unicode="&#x1fb;" horiz-adv-x="1545" 
d="M660 -33q-132 0 -243 53t-177.5 155t-66.5 248q0 192 139.5 295.5t446.5 140.5q117 14 209 28t144.5 42.5t52.5 87.5v64q0 167 -106 266.5t-292 99.5q-164 0 -277 -72.5t-158 -186.5l-115 43q66 166 217.5 247t329.5 81q137 0 256 -51.5t193 -159t74 -275.5v-1073h-122
v277h-9q-60 -129 -186.5 -219.5t-309.5 -90.5zM672 80q144 0 255.5 70.5t174.5 193.5t63 279v226q-48 -40 -164.5 -62.5t-229.5 -35.5q-252 -30 -364 -109.5t-112 -222.5q0 -157 108 -248t269 -91zM780 1653q-92 0 -159 66t-66 161q-1 92 66 158t159 66q93 0 158 -66
t65 -158q0 -95 -65 -161t-158 -66zM709 2147l152 221h203l-248 -221h-107zM780 1784q41 -1 67 27.5t26 68.5q0 35 -26 63t-67 29q-39 -1 -67.5 -29t-28.5 -63q0 -40 28.5 -68.5t67.5 -27.5z" />
    <glyph glyph-name="uni01FC" unicode="&#x1fc;" horiz-adv-x="2729" 
d="M85 0l1027 2048h1396v-116h-1015v-849h954v-116h-954v-851h1039v-116h-1164v655h-818l-326 -655h-139zM608 771h760v1161h-183zM1690 2267l268 442h146l-302 -442h-112z" />
    <glyph glyph-name="uni01FD" unicode="&#x1fd;" horiz-adv-x="2599" 
d="M1821 -32q-217 0 -373.5 111t-227.5 293q-69 -205 -227 -305t-333 -100q-132 0 -243 53t-177.5 155t-66.5 248q0 192 139.5 295.5t446.5 140.5q117 14 209 28t144.5 43t52.5 87v64q0 167 -106 266.5t-292 99.5q-164 0 -277 -72.5t-158 -186.5l-115 43q66 166 217.5 247
t329.5 81q176 0 313.5 -84.5t183.5 -248.5q82 154 219 243.5t312 89.5q172 0 317.5 -90.5t233.5 -257t88 -394.5v-76h-1171v-21q6 -185 74.5 -329t192 -227t294.5 -83q126 0 215.5 42.5t147 103.5t85.5 118l111 -45q-34 -77 -108 -154t-186.5 -127.5t-264.5 -50.5zM1268 914
l-3 -62h1043q0 166 -68 300.5t-184.5 213.5t-263.5 79q-137 0 -247.5 -69.5t-182.5 -189.5t-94 -272zM672 80q144 0 255.5 70.5t174.5 193.5t63 279v226q-48 -40 -164.5 -62.5t-229.5 -35.5q-252 -30 -364 -109.5t-112 -222.5q0 -157 108 -248t269 -91zM1226 1755l268 442
h146l-302 -442h-112z" />
    <glyph glyph-name="uni01FE" unicode="&#x1fe;" horiz-adv-x="2117" 
d="M403 -60l-86 59l149 225q-129 139 -201.5 343t-72.5 457q0 317 110 553.5t305.5 367.5t451.5 131q149 0 279 -46t235 -133l139 210l85 -59l-147 -223q130 -138 202.5 -342.5t72.5 -458.5q0 -316 -110 -553t-305.5 -368t-450.5 -131q-150 0 -280.5 46.5t-235.5 133.5z
M1803 1024q0 221 -59 397.5t-164 298.5l-969 -1466q188 -162 448 -162q217 0 385 114.5t263.5 324t95.5 493.5zM536 330l969 1464q-188 162 -446 162q-217 0 -385 -114t-263.5 -323t-95.5 -495q0 -220 58 -396t163 -298zM990 2267l268 442h146l-302 -442h-112z" />
    <glyph glyph-name="uni01FF" unicode="&#x1ff;" horiz-adv-x="1648" 
d="M335 -55l-88 59l119 177q-93 106 -145.5 256t-52.5 329q0 231 85 411t233 282.5t338 102.5q109 0 205.5 -35.5t175.5 -100.5l108 161l88 -59l-119 -177q93 -106 145.5 -256t52.5 -329q0 -230 -85 -410t-233 -282.5t-338 -102.5q-109 0 -205.5 35t-175.5 100zM824 84
q162 0 282 91t186.5 246t66.5 345q0 290 -146 483l-704 -1046q64 -56 143.5 -87.5t171.5 -31.5zM435 283l704 1046q-64 56 -143.5 87.5t-171.5 31.5q-160 0 -280.5 -91.5t-187.5 -246t-67 -344.5q0 -291 146 -483zM756 1758l268 442h146l-302 -442h-112z" />
    <glyph glyph-name="uni0200" unicode="&#x200;" horiz-adv-x="1792" 
d="M217 0h-132l739 2048h144l739 -2048h-132l-234 655h-890zM492 771h808l-399 1116h-10zM861 2245h-181l-428 364h281zM1143 2245h-140l-331 364h237z" />
    <glyph glyph-name="uni0201" unicode="&#x201;" horiz-adv-x="1545" 
d="M660 -33q-132 0 -243 53t-177.5 155t-66.5 248q0 192 139.5 295.5t446.5 140.5q117 14 209 28t144.5 42.5t52.5 87.5v64q0 167 -106 266.5t-292 99.5q-164 0 -277 -72.5t-158 -186.5l-115 43q66 166 217.5 247t329.5 81q137 0 256 -51.5t193 -159t74 -275.5v-1073h-122
v277h-9q-60 -129 -186.5 -219.5t-309.5 -90.5zM672 80q144 0 255.5 70.5t174.5 193.5t63 279v226q-48 -40 -164.5 -62.5t-229.5 -35.5q-252 -30 -364 -109.5t-112 -222.5q0 -157 108 -248t269 -91zM745 1733h-181l-428 364h281zM1027 1733h-140l-331 364h237z" />
    <glyph glyph-name="uni0202" unicode="&#x202;" horiz-adv-x="1792" 
d="M217 0h-132l739 2048h144l739 -2048h-132l-234 655h-890zM492 771h808l-399 1116h-10zM540 2288q1 149 98.5 246t263.5 97q170 0 264 -97t92 -246h-169q2 89 -42 151.5t-145 62.5q-106 0 -149 -65t-44 -149h-169z" />
    <glyph glyph-name="uni0203" unicode="&#x203;" horiz-adv-x="1545" 
d="M660 -33q-132 0 -243 53t-177.5 155t-66.5 248q0 192 139.5 295.5t446.5 140.5q117 14 209 28t144.5 42.5t52.5 87.5v64q0 167 -106 266.5t-292 99.5q-164 0 -277 -72.5t-158 -186.5l-115 43q66 166 217.5 247t329.5 81q137 0 256 -51.5t193 -159t74 -275.5v-1073h-122
v277h-9q-60 -129 -186.5 -219.5t-309.5 -90.5zM672 80q144 0 255.5 70.5t174.5 193.5t63 279v226q-48 -40 -164.5 -62.5t-229.5 -35.5q-252 -30 -364 -109.5t-112 -222.5q0 -157 108 -248t269 -91zM424 1776q1 149 98.5 246t263.5 97q170 0 264 -97t92 -246h-169
q2 89 -42 151.5t-145 62.5q-106 0 -149 -65t-44 -149h-169z" />
    <glyph glyph-name="uni0204" unicode="&#x204;" horiz-adv-x="1657" 
d="M296 0v2048h1140v-116h-1015v-849h954v-116h-954v-851h1039v-116h-1164zM834 2245h-181l-428 364h281zM1116 2245h-140l-331 364h237z" />
    <glyph glyph-name="uni0205" unicode="&#x205;" horiz-adv-x="1629" 
d="M852 -32q-208 0 -362 103t-238 282t-84 408q0 230 84.5 410t232.5 284t338 104q172 0 317 -90.5t233 -257t88 -394.5v-76h-1172q3 -189 70.5 -338t193 -235.5t299.5 -86.5q125 0 214.5 42.5t147.5 103.5t86 118l111 -45q-35 -77 -108.5 -154t-186 -127.5t-264.5 -50.5z
M291 852h1048q0 167 -68 301t-185 213t-263 79t-261.5 -78.5t-187 -213t-83.5 -301.5zM781 1733h-181l-428 364h281zM1063 1733h-140l-331 364h237z" />
    <glyph glyph-name="uni0206" unicode="&#x206;" horiz-adv-x="1657" 
d="M296 0v2048h1140v-116h-1015v-849h954v-116h-954v-851h1039v-116h-1164zM514 2288q1 149 98.5 246t263.5 97q170 0 264 -97t92 -246h-169q2 89 -42 151.5t-145 62.5q-106 0 -149 -65t-44 -149h-169z" />
    <glyph glyph-name="uni0207" unicode="&#x207;" horiz-adv-x="1629" 
d="M852 -32q-208 0 -362 103t-238 282t-84 408q0 230 84.5 410t232.5 284t338 104q172 0 317 -90.5t233 -257t88 -394.5v-76h-1172q3 -189 70.5 -338t193 -235.5t299.5 -86.5q125 0 214.5 42.5t147.5 103.5t86 118l111 -45q-35 -77 -108.5 -154t-186 -127.5t-264.5 -50.5z
M291 852h1048q0 167 -68 301t-185 213t-263 79t-261.5 -78.5t-187 -213t-83.5 -301.5zM460 1776q1 149 98.5 246t263.5 97q170 0 264 -97t92 -246h-169q2 89 -42 151.5t-145 62.5q-106 0 -149 -65t-44 -149h-169z" />
    <glyph glyph-name="uni0208" unicode="&#x208;" horiz-adv-x="717" 
d="M421 2048v-2048h-125v2048h125zM324 2245h-181l-428 364h281zM606 2245h-140l-331 364h237z" />
    <glyph glyph-name="uni0209" unicode="&#x209;" horiz-adv-x="639" 
d="M259 0v1536h121v-1536h-121zM285 1733h-181l-428 364h281zM567 1733h-140l-331 364h237z" />
    <glyph glyph-name="uni020A" unicode="&#x20a;" horiz-adv-x="717" 
d="M421 2048v-2048h-125v2048h125zM3 2288q1 149 98.5 246t263.5 97q170 0 264 -97t92 -246h-169q2 89 -42 151.5t-145 62.5q-106 0 -149 -65t-44 -149h-169z" />
    <glyph glyph-name="uni020B" unicode="&#x20b;" horiz-adv-x="639" 
d="M259 0v1536h121v-1536h-121zM-36 1776q1 149 98.5 246t263.5 97q170 0 264 -97t92 -246h-169q2 89 -42 151.5t-145 62.5q-106 0 -149 -65t-44 -149h-169z" />
    <glyph glyph-name="uni020C" unicode="&#x20c;" horiz-adv-x="2117" 
d="M1925 1024q0 -316 -110 -553t-305.5 -368t-450.5 -131q-256 0 -451.5 131.5t-305.5 368t-110 552.5q0 317 110 553.5t305.5 367.5t451.5 131q255 0 450.5 -131t305.5 -367.5t110 -553.5zM1803 1024q0 285 -96 494t-263.5 323.5t-384.5 114.5t-385 -114t-263.5 -323
t-95.5 -495q0 -283 95 -492.5t262.5 -324.5t386.5 -115q217 0 385 114.5t263.5 324t95.5 493.5zM1024 2245h-181l-428 364h281zM1306 2245h-140l-331 364h237z" />
    <glyph glyph-name="uni020D" unicode="&#x20d;" horiz-adv-x="1648" 
d="M824 -32q-190 0 -338 102.5t-233 282.5t-85 410q0 231 85 411t233 282.5t338 102.5t338 -103t233 -282.5t85 -410.5q0 -230 -85 -410t-233 -282.5t-338 -102.5zM824 81q162 0 282 91t186.5 246t66.5 345t-66.5 344.5t-187 246t-281.5 91.5q-160 0 -280.5 -91.5
t-187.5 -246t-67 -344.5t66.5 -345t187 -246t281.5 -91zM789 1733h-181l-428 364h281zM1071 1733h-140l-331 364h237z" />
    <glyph glyph-name="uni020E" unicode="&#x20e;" horiz-adv-x="2117" 
d="M1925 1024q0 -316 -110 -553t-305.5 -368t-450.5 -131q-256 0 -451.5 131.5t-305.5 368t-110 552.5q0 317 110 553.5t305.5 367.5t451.5 131q255 0 450.5 -131t305.5 -367.5t110 -553.5zM1803 1024q0 285 -96 494t-263.5 323.5t-384.5 114.5t-385 -114t-263.5 -323
t-95.5 -495q0 -283 95 -492.5t262.5 -324.5t386.5 -115q217 0 385 114.5t263.5 324t95.5 493.5zM703 2288q1 149 98.5 246t263.5 97q170 0 264 -97t92 -246h-169q2 89 -42 151.5t-145 62.5q-106 0 -149 -65t-44 -149h-169z" />
    <glyph glyph-name="uni020F" unicode="&#x20f;" horiz-adv-x="1648" 
d="M824 -32q-190 0 -338 102.5t-233 282.5t-85 410q0 231 85 411t233 282.5t338 102.5t338 -103t233 -282.5t85 -410.5q0 -230 -85 -410t-233 -282.5t-338 -102.5zM824 81q162 0 282 91t186.5 246t66.5 345t-66.5 344.5t-187 246t-281.5 91.5q-160 0 -280.5 -91.5
t-187.5 -246t-67 -344.5t66.5 -345t187 -246t281.5 -91zM468 1776q1 149 98.5 246t263.5 97q170 0 264 -97t92 -246h-169q2 89 -42 151.5t-145 62.5q-106 0 -149 -65t-44 -149h-169z" />
    <glyph glyph-name="uni0210" unicode="&#x210;" horiz-adv-x="1755" 
d="M296 0v2048h631q195 0 334.5 -76t214.5 -210.5t75 -312.5q0 -207 -103 -355t-290 -205l483 -889h-144l-465 862q-51 -6 -104 -6h-507v-856h-125zM421 973h504q236 0 369 129.5t133 346.5q0 219 -133.5 351t-369.5 132h-503v-959zM834 2245h-181l-428 364h281zM1116 2245
h-140l-331 364h237z" />
    <glyph glyph-name="uni0211" unicode="&#x211;" horiz-adv-x="1040" 
d="M253 0v1536h119v-240h11q50 118 168.5 189.5t271.5 71.5q105 0 182 -37l-42 -107q-63 26 -147 26q-128 0 -227.5 -55t-156.5 -151.5t-57 -220.5v-1012h-122zM550 1733h-181l-428 364h281zM832 1733h-140l-331 364h237z" />
    <glyph glyph-name="uni0212" unicode="&#x212;" horiz-adv-x="1755" 
d="M296 0v2048h631q195 0 334.5 -76t214.5 -210.5t75 -312.5q0 -207 -103 -355t-290 -205l483 -889h-144l-465 862q-51 -6 -104 -6h-507v-856h-125zM421 973h504q236 0 369 129.5t133 346.5q0 219 -133.5 351t-369.5 132h-503v-959zM514 2288q1 149 98.5 246t263.5 97
q170 0 264 -97t92 -246h-169q2 89 -42 151.5t-145 62.5q-106 0 -149 -65t-44 -149h-169z" />
    <glyph glyph-name="uni0213" unicode="&#x213;" horiz-adv-x="1040" 
d="M253 0v1536h119v-240h11q50 118 168.5 189.5t271.5 71.5q105 0 182 -37l-42 -107q-63 26 -147 26q-128 0 -227.5 -55t-156.5 -151.5t-57 -220.5v-1012h-122zM256 1786q1 149 98.5 246t263.5 97q170 0 264 -97t92 -246h-169q2 89 -42 151.5t-145 62.5q-106 0 -149 -65
t-44 -149h-169z" />
    <glyph glyph-name="uni0214" unicode="&#x214;" horiz-adv-x="2104" 
d="M1683 2048h125v-1356q0 -215 -100.5 -378.5t-271.5 -255t-384 -91.5q-211 0 -383 92t-272.5 255.5t-100.5 377.5v1356h125v-1356q0 -179 84 -315.5t227 -213t320 -76.5q178 0 320.5 76.5t226.5 213t84 315.5v1356zM1017 2245h-181l-428 364h281zM1299 2245h-140l-331 364
h237z" />
    <glyph glyph-name="uni0215" unicode="&#x215;" horiz-adv-x="1612" 
d="M1237 545v991h122v-1536h-122v249h-10q-54 -118 -174.5 -193.5t-284.5 -75.5q-226 0 -370.5 145.5t-144.5 397.5v1013h122v-1008q0 -192 117 -310.5t301 -118.5q120 0 221 54.5t162 154.5t61 237zM772 1733h-181l-428 364h281zM1054 1733h-140l-331 364h237z" />
    <glyph glyph-name="uni0216" unicode="&#x216;" horiz-adv-x="2104" 
d="M1683 2048h125v-1356q0 -215 -100.5 -378.5t-271.5 -255t-384 -91.5q-211 0 -383 92t-272.5 255.5t-100.5 377.5v1356h125v-1356q0 -179 84 -315.5t227 -213t320 -76.5q178 0 320.5 76.5t226.5 213t84 315.5v1356zM696 2288q1 149 98.5 246t263.5 97q170 0 264 -97
t92 -246h-169q2 89 -42 151.5t-145 62.5q-106 0 -149 -65t-44 -149h-169z" />
    <glyph glyph-name="uni0217" unicode="&#x217;" horiz-adv-x="1612" 
d="M1237 545v991h122v-1536h-122v249h-10q-54 -118 -174.5 -193.5t-284.5 -75.5q-226 0 -370.5 145.5t-144.5 397.5v1013h122v-1008q0 -192 117 -310.5t301 -118.5q120 0 221 54.5t162 154.5t61 237zM451 1776q1 149 98.5 246t263.5 97q170 0 264 -97t92 -246h-169
q2 89 -42 151.5t-145 62.5q-106 0 -149 -65t-44 -149h-169z" />
    <glyph glyph-name="uni0218" unicode="&#x218;" horiz-adv-x="1748" 
d="M1400 1536q-16 191 -155.5 309t-360.5 118q-149 0 -265 -54.5t-182 -150t-66 -218.5q0 -159 117.5 -255t302.5 -152l224 -66q153 -46 274.5 -114t191.5 -170.5t70 -250.5q0 -162 -84 -290t-237 -201.5t-361 -73.5q-297 0 -476 147t-196 382h128q15 -190 165 -301
t379 -111q165 0 291 56.5t197 157.5t71 235q0 161 -114 256t-334 162l-239 72q-241 74 -367 200t-126 313q0 158 84 280.5t228.5 192.5t326.5 70q183 0 323 -70.5t222.5 -193t90.5 -279.5h-123zM954 -228l-14 -111q-19 -141 -57.5 -302.5t-88.5 -275.5l-102 13
q32 116 66 251t58 308l14 117h124z" />
    <glyph glyph-name="uni0219" unicode="&#x219;" horiz-adv-x="1416" 
d="M1229 1205l-113 -30q-42 126 -133.5 199.5t-249.5 73.5q-169 0 -276.5 -84t-107.5 -219q0 -217 296 -290l236 -59q366 -91 366 -395q0 -127 -69 -225t-191 -153t-282 -55q-214 0 -352 101t-178 288l117 30q67 -307 412 -307q188 0 303.5 89t115.5 228q0 219 -274 286
l-245 60q-188 46 -282 148t-94 250q0 124 65 218t179 147t261 53q195 0 318 -92t178 -262zM800 -195l-14 -111q-19 -141 -57.5 -302.5t-88.5 -275.5l-102 13q32 116 66 251t58 308l14 117h124z" />
    <glyph glyph-name="uni021A" unicode="&#x21a;" horiz-adv-x="1755" 
d="M160 1932v116h1435v-116h-655v-1932h-125v1932h-655zM955 -195l-14 -111q-19 -141 -57.5 -302.5t-88.5 -275.5l-102 13q32 116 66 251t58 308l14 117h124z" />
    <glyph glyph-name="uni021B" unicode="&#x21b;" horiz-adv-x="995" 
d="M796 1536v-109h-323v-1064q0 -139 79 -204.5t181 -65.5q33 0 57.5 5.5t46.5 12.5l30 -111q-28 -10 -61.5 -17.5t-80.5 -7.5q-96 0 -181 43t-138.5 124.5t-53.5 198.5v1086h-227v109h227v368h121v-368h323zM590 -195l-14 -111q-19 -141 -57.5 -302.5t-88.5 -275.5l-102 13
q32 116 66 251t58 308l14 117h124z" />
    <glyph glyph-name="uni021C" unicode="&#x21c;" horiz-adv-x="1703" 
d="M291 463v128q289 88 519 205.5t364 288.5t134 419q0 96 -52.5 182t-161 140t-278.5 54q-122 0 -224 -51.5t-163 -140.5t-61 -201h-185q0 162 84.5 285t228.5 192.5t320 70.5q314 -1 494.5 -148.5t180.5 -426.5q0 -109 -45 -214t-125 -203q105 -99 154.5 -241.5
t49.5 -369.5q0 -254 -92 -423t-258 -279.5t-391.5 -186.5t-492.5 -143v148q242 51 435.5 117t329.5 164.5t208 244.5t72 357q0 171 -30.5 289.5t-110.5 191.5q-169 -152 -405.5 -269t-498.5 -180z" />
    <glyph glyph-name="uni021D" unicode="&#x21d;" horiz-adv-x="1451" 
d="M276 339v137q105 17 238 60t256.5 119t204 190.5t80.5 274.5q1 85 -78 162t-258 78q-96 0 -176 -40t-127.5 -103t-47.5 -134h-173q0 131 74 228t196.5 151t269.5 54q236 0 368.5 -111.5t131.5 -324.5q0 -81 -29.5 -156t-80.5 -143q77 -99 108 -244t30 -274
q1 -424 -244.5 -622t-742.5 -241v152q222 31 406 102.5t293.5 212t109.5 377.5q0 110 -24 213.5t-86 171.5q-151 -122 -344 -198.5t-355 -91.5z" />
    <glyph glyph-name="uni021E" unicode="&#x21e;" horiz-adv-x="2076" 
d="M296 0v2048h125v-965h1234v965h125v-2048h-125v967h-1234v-967h-125zM772 2638l269 -298l269 298h126v-10l-354 -390h-82l-354 390v10h126z" />
    <glyph glyph-name="uni021F" unicode="&#x21f;" horiz-adv-x="1621" 
d="M375 996v-996h-122v2048h122v-755h12q54 120 172.5 191.5t284.5 71.5q233 0 378.5 -145t145.5 -398v-1013h-121v1008q0 197 -117 316t-309 119q-194 0 -320 -123t-126 -324zM46 2637l269 -298l269 298h126v-10l-354 -390h-82l-354 390v10h126z" />
    <glyph glyph-name="uni0220" unicode="&#x220;" horiz-adv-x="1699" 
d="M1557 -572h-177v1891q1 200 -71 322.5t-194.5 178.5t-274.5 56q-82 0 -148.5 -2t-120.5 -5q-60 -2 -105.5 -3t-81.5 2v111q83 29 194 41t230 12q141 0 274.5 -42.5t240.5 -130.5t170.5 -222.5t63.5 -317.5v-1891zM319 2004v-2004h-171v2004h171z" />
    <glyph glyph-name="uni0221" unicode="&#x221;" horiz-adv-x="2025" 
d="M777 -32q-185 0 -323 102t-213.5 282t-75.5 412t76.5 411t214.5 281.5t322 102.5q197 0 319.5 -108.5t175.5 -257.5h12v855h121v-1717h22v-285q67 48 137 71.5t127 23.5q74 0 141 -42.5t110.5 -120.5t44.5 -185q-1 -160 -97.5 -264.5t-239.5 -104.5q-138 0 -215.5 87.5
t-102.5 188.5l-168 -197l-130 89l261 325q11 16 24 30v53h-32v335h-15q-55 -148 -177 -257.5t-319 -109.5zM788 81q156 0 267.5 89t171 244t59.5 351t-59.5 349.5t-171 242t-267.5 88.5q-158 0 -270.5 -89.5t-172 -243.5t-59.5 -347t59.5 -348t172 -245.5t270.5 -90.5z
M1429 -188q6 -104 69.5 -161t144.5 -58q83 2 131.5 56.5t49.5 135.5q-1 72 -37 118.5t-91 61.5q-79 18 -122 -1.5t-57 -48.5z" />
    <glyph glyph-name="uni0222" unicode="&#x222;" horiz-adv-x="1701" 
d="M817 1176h67q140 0 264.5 29t203.5 107t79 225q-1 161 -81.5 238.5t-242.5 120.5v136q136 -12 250 -68t183 -161t68 -266q0 -181 -90.5 -290t-231.5 -163q147 -72 236 -201t89 -310q0 -209 -100 -342t-269 -196t-375 -63h-35q-205 0 -373.5 63t-268 195t-99.5 339
q0 184 88.5 313.5t235.5 201.5q-142 54 -233 163t-91 290q0 161 70.5 266t185 161t245.5 68v-136q-160 -43 -241.5 -120.5t-82.5 -238.5q1 -150 82.5 -228t207.5 -105.5t259 -27.5zM867 1020h-35q-253 -1 -408 -107.5t-156 -343.5q1 -161 72 -256t198 -136t294 -41h35
q167 0 294.5 41t199.5 137t72 259q0 237 -157.5 341.5t-408.5 105.5z" />
    <glyph glyph-name="uni0223" unicode="&#x223;" horiz-adv-x="1703" 
d="M835 1181h32q41 0 81 -3q125 6 235.5 41.5t179.5 120t69 237.5q-1 176 -80 273t-243 166v124q134 -9 248.5 -79t184.5 -193.5t70 -295.5q0 -189 -95 -303.5t-242 -170.5q153 -73 245 -204t92 -315q0 -209 -99.5 -343.5t-268.5 -199t-377 -64.5h-32q-207 0 -376 64.5
t-268 198t-99 340.5q0 186 91.5 318t244.5 204q-147 56 -241.5 171t-94.5 304q0 174 69.5 297.5t184.5 192.5t249 78v-124q-165 -69 -245.5 -166t-80.5 -273q0 -152 70 -236.5t181.5 -120.5t235.5 -42q39 3 79 3zM867 1035h-32q-250 -1 -408 -110.5t-158 -349.5
q0 -242 158 -351.5t408 -108.5h32q162 -1 290 47t202.5 151t75.5 266q-1 158 -75.5 258.5t-202.5 148.5t-290 49z" />
    <glyph glyph-name="uni0224" unicode="&#x224;" horiz-adv-x="1681" 
d="M1205 0h-1009v129l1152 1790h-1169v129h1308v-129l-1152 -1790h870q135 0 220.5 -93t86.5 -231v-77h-136v57q-1 80 -41 147.5t-130 67.5z" />
    <glyph glyph-name="uni0225" unicode="&#x225;" horiz-adv-x="1467" 
d="M1219 -285v57q0 98 -38 163t-150 65h-847v168l952 1228h-992v140h1147v-148l-946 -1245h686q97 -1 165 -47.5t104.5 -120t36.5 -154.5v-106h-118z" />
    <glyph glyph-name="uni0226" unicode="&#x226;" horiz-adv-x="1792" 
d="M217 0h-132l739 2048h144l739 -2048h-132l-234 655h-890zM492 771h808l-399 1116h-10zM896 2320q-40 0 -69.5 28t-29.5 68t29.5 68t69.5 28q41 0 69.5 -28t28.5 -68t-28.5 -68t-69.5 -28z" />
    <glyph glyph-name="uni0227" unicode="&#x227;" horiz-adv-x="1545" 
d="M660 -33q-132 0 -243 53t-177.5 155t-66.5 248q0 192 139.5 295.5t446.5 140.5q117 14 209 28t144.5 42.5t52.5 87.5v64q0 167 -106 266.5t-292 99.5q-164 0 -277 -72.5t-158 -186.5l-115 43q66 166 217.5 247t329.5 81q137 0 256 -51.5t193 -159t74 -275.5v-1073h-122
v277h-9q-60 -129 -186.5 -219.5t-309.5 -90.5zM672 80q144 0 255.5 70.5t174.5 193.5t63 279v226q-48 -40 -164.5 -62.5t-229.5 -35.5q-252 -30 -364 -109.5t-112 -222.5q0 -157 108 -248t269 -91zM780 1808q-40 0 -69.5 28t-29.5 68t29.5 68t69.5 28q41 0 69.5 -28
t28.5 -68t-28.5 -68t-69.5 -28z" />
    <glyph glyph-name="uni0228" unicode="&#x228;" horiz-adv-x="1657" 
d="M296 0v2048h1140v-116h-1015v-849h954v-116h-954v-851h1039v-116h-1164zM779 8h108l-15 -80q95 -14 151.5 -73t56.5 -160q0 -233 -320 -239l-4 95q210 4 211 141q-1 154 -220 157z" />
    <glyph glyph-name="uni0229" unicode="&#x229;" horiz-adv-x="1629" 
d="M852 -32q-208 0 -362 103t-238 282t-84 408q0 230 84.5 410t232.5 284t338 104q172 0 317 -90.5t233 -257t88 -394.5v-76h-1172q3 -189 70.5 -338t193 -235.5t299.5 -86.5q125 0 214.5 42.5t147.5 103.5t86 118l111 -45q-35 -77 -108.5 -154t-186 -127.5t-264.5 -50.5z
M291 852h1048q0 167 -68 301t-185 213t-263 79t-261.5 -78.5t-187 -213t-83.5 -301.5zM764 8h108l-15 -80q95 -14 151.5 -73t56.5 -160q0 -233 -320 -239l-4 95q210 4 211 141q-1 154 -220 157z" />
    <glyph glyph-name="uni022A" unicode="&#x22a;" horiz-adv-x="2117" 
d="M1925 1024q0 -316 -110 -553t-305.5 -368t-450.5 -131q-256 0 -451.5 131.5t-305.5 368t-110 552.5q0 317 110 553.5t305.5 367.5t451.5 131q255 0 450.5 -131t305.5 -367.5t110 -553.5zM1803 1024q0 285 -96 494t-263.5 323.5t-384.5 114.5t-385 -114t-263.5 -323
t-95.5 -495q0 -283 95 -492.5t262.5 -324.5t386.5 -115q217 0 385 114.5t263.5 324t95.5 493.5zM836 2320q-38 0 -67 29t-29 67q0 41 29 68.5t67 27.5q41 0 68.5 -27.5t27.5 -68.5q0 -38 -27.5 -67t-68.5 -29zM1284 2320q-38 0 -67 29t-29 67q0 41 29 68.5t67 27.5
q41 0 68.5 -27.5t27.5 -68.5q0 -38 -27.5 -67t-68.5 -29zM1430 2900v-109h-739v109h739z" />
    <glyph glyph-name="uni022B" unicode="&#x22b;" horiz-adv-x="1648" 
d="M824 -32q-190 0 -338 102.5t-233 282.5t-85 410q0 231 85 411t233 282.5t338 102.5t338 -103t233 -282.5t85 -410.5q0 -230 -85 -410t-233 -282.5t-338 -102.5zM824 81q162 0 282 91t186.5 246t66.5 345t-66.5 344.5t-187 246t-281.5 91.5q-160 0 -280.5 -91.5
t-187.5 -246t-67 -344.5t66.5 -345t187 -246t281.5 -91zM601 1808q-38 0 -67 29t-29 67q0 41 29 68.5t67 27.5q41 0 68.5 -27.5t27.5 -68.5q0 -38 -27.5 -67t-68.5 -29zM1049 1808q-38 0 -67 29t-29 67q0 41 29 68.5t67 27.5q41 0 68.5 -27.5t27.5 -68.5q0 -38 -27.5 -67
t-68.5 -29zM1195 2388v-109h-739v109h739z" />
    <glyph glyph-name="uni022C" unicode="&#x22c;" horiz-adv-x="2117" 
d="M1925 1024q0 -316 -110 -553t-305.5 -368t-450.5 -131q-256 0 -451.5 131.5t-305.5 368t-110 552.5q0 317 110 553.5t305.5 367.5t451.5 131q255 0 450.5 -131t305.5 -367.5t110 -553.5zM1803 1024q0 285 -96 494t-263.5 323.5t-384.5 114.5t-385 -114t-263.5 -323
t-95.5 -495q0 -283 95 -492.5t262.5 -324.5t386.5 -115q217 0 385 114.5t263.5 324t95.5 493.5zM1520 2856v-192h-916v192h916zM1336 2519l85 -19q0 -106 -64 -180.5t-168 -74.5q-72 0 -112 28t-76 56t-97 28q-49 0 -83 -39.5t-36 -86.5l-85 21q2 99 66.5 178.5t161.5 80.5
q63 -1 105.5 -28t82.5 -53.5t97 -26.5q51 0 88 32t35 84z" />
    <glyph glyph-name="uni022D" unicode="&#x22d;" horiz-adv-x="1648" 
d="M824 -32q-190 0 -338 102.5t-233 282.5t-85 410q0 231 85 411t233 282.5t338 102.5t338 -103t233 -282.5t85 -410.5q0 -230 -85 -410t-233 -282.5t-338 -102.5zM824 81q162 0 282 91t186.5 246t66.5 345t-66.5 344.5t-187 246t-281.5 91.5q-160 0 -280.5 -91.5
t-187.5 -246t-67 -344.5t66.5 -345t187 -246t281.5 -91zM1147 2088l144 -16q1 -159 -85.5 -239.5t-202.5 -79.5q-74 0 -117.5 22.5t-79.5 48.5q-32 24 -67.5 43t-90.5 19q-58 0 -100 -54.5t-42 -113.5l-138 6q0 158 84.5 245t199.5 87q77 0 127.5 -34t99.5 -68t121 -34
q64 0 106 52.5t41 115.5zM1296 2410v-189h-916v189h916z" />
    <glyph glyph-name="uni022E" unicode="&#x22e;" horiz-adv-x="2117" 
d="M1925 1024q0 -316 -110 -553t-305.5 -368t-450.5 -131q-256 0 -451.5 131.5t-305.5 368t-110 552.5q0 317 110 553.5t305.5 367.5t451.5 131q255 0 450.5 -131t305.5 -367.5t110 -553.5zM1803 1024q0 285 -96 494t-263.5 323.5t-384.5 114.5t-385 -114t-263.5 -323
t-95.5 -495q0 -283 95 -492.5t262.5 -324.5t386.5 -115q217 0 385 114.5t263.5 324t95.5 493.5zM1059 2320q-40 0 -69.5 28t-29.5 68t29.5 68t69.5 28q41 0 69.5 -28t28.5 -68t-28.5 -68t-69.5 -28z" />
    <glyph glyph-name="uni022F" unicode="&#x22f;" horiz-adv-x="1648" 
d="M824 -32q-190 0 -338 102.5t-233 282.5t-85 410q0 231 85 411t233 282.5t338 102.5t338 -103t233 -282.5t85 -410.5q0 -230 -85 -410t-233 -282.5t-338 -102.5zM824 81q162 0 282 91t186.5 246t66.5 345t-66.5 344.5t-187 246t-281.5 91.5q-160 0 -280.5 -91.5
t-187.5 -246t-67 -344.5t66.5 -345t187 -246t281.5 -91zM824 1808q-40 0 -69.5 28t-29.5 68t29.5 68t69.5 28q41 0 69.5 -28t28.5 -68t-28.5 -68t-69.5 -28z" />
    <glyph glyph-name="uni0230" unicode="&#x230;" horiz-adv-x="2117" 
d="M1925 1024q0 -316 -110 -553t-305.5 -368t-450.5 -131q-256 0 -451.5 131.5t-305.5 368t-110 552.5q0 317 110 553.5t305.5 367.5t451.5 131q255 0 450.5 -131t305.5 -367.5t110 -553.5zM1803 1024q0 285 -96 494t-263.5 323.5t-384.5 114.5t-385 -114t-263.5 -323
t-95.5 -495q0 -283 95 -492.5t262.5 -324.5t386.5 -115q217 0 385 114.5t263.5 324t95.5 493.5zM1059 2192q-40 0 -69.5 28t-29.5 68t29.5 68t69.5 28q41 0 69.5 -28t28.5 -68t-28.5 -68t-69.5 -28zM1428 2720v-109h-739v109h739z" />
    <glyph glyph-name="uni0231" unicode="&#x231;" horiz-adv-x="1648" 
d="M824 -32q-190 0 -338 102.5t-233 282.5t-85 410q0 231 85 411t233 282.5t338 102.5t338 -103t233 -282.5t85 -410.5q0 -230 -85 -410t-233 -282.5t-338 -102.5zM824 81q162 0 282 91t186.5 246t66.5 345t-66.5 344.5t-187 246t-281.5 91.5q-160 0 -280.5 -91.5
t-187.5 -246t-67 -344.5t66.5 -345t187 -246t281.5 -91zM826 1700q-40 0 -69.5 28t-29.5 68t29.5 68t69.5 28q41 0 69.5 -28t28.5 -68t-28.5 -68t-69.5 -28zM1195 2228v-109h-739v109h739z" />
    <glyph glyph-name="uni0232" unicode="&#x232;" horiz-adv-x="1776" 
d="M88 2048h148l645 -988h14l645 988h148l-737 -1119v-929h-126v929zM1258 2469v-109h-739v109h739z" />
    <glyph glyph-name="uni0233" unicode="&#x233;" horiz-adv-x="1504" 
d="M341 -604q-46 0 -91 10t-81 26l36 107q143 -54 243.5 -4t163.5 225l79 219l-563 1557h131l488 -1379h10l488 1379h131l-657 -1824q-118 -318 -378 -316zM1122 1957v-109h-739v109h739z" />
    <glyph glyph-name="uni0234" unicode="&#x234;" horiz-adv-x="815" 
d="M372 2048v-1747l0.5 -46.5t0.5 -119v-148.5q46 80 104 98t130 19q150 -1 255.5 -90.5t104.5 -260.5q1 -163 -100 -246t-272 -83q-118 0 -185 37t-98 91.5t-41 109.5l-162 -191l-114 100l269 294v2183h108zM372 -220v-35q1 -67 71.5 -120.5t148.5 -55.5q91 2 144 54.5
t53 137.5q0 96 -57.5 140t-151.5 44q-83 0 -127 -51t-64 -94z" />
    <glyph glyph-name="uni0235" unicode="&#x235;" horiz-adv-x="2081" 
d="M375 996v-996h-122v1536h119v-243h12q54 119 173 191t283 72q232 0 377.5 -145.5t145.5 -397.5v-731q48 32 108 63t110 31q149 0 246.5 -89t97.5 -243q0 -150 -91.5 -241.5t-245.5 -90.5q-156 0 -233.5 72t-106.5 160l-207 -207l-112 132l312 312v827q0 197 -116.5 316
t-307.5 119q-192 0 -317 -123t-125 -324zM1363 61v-61h-27q16 -64 80 -109.5t140 -46.5q85 1 138 54t54 130q-1 82 -54.5 127t-146.5 44q-69 0 -101 -24.5t-47.5 -57t-35.5 -56.5z" />
    <glyph glyph-name="uni0236" unicode="&#x236;" horiz-adv-x="1276" 
d="M395 1904h121v-368h323v-109h-323v-886q121 88 261 88q164 0 265 -94t101 -231q0 -142 -104.5 -237.5t-265.5 -95.5q-153 0 -250 86.5t-121 209.5q-80 -100 -189 -258l-88 74q78 113 144 200t126 150v994h-227v109h227v368zM516 392v-68q0 -103 74 -173t183 -70
q103 0 174.5 62t71.5 157q0 89 -68 152.5t-184 63.5q-61 0 -121 -29t-130 -95z" />
    <glyph glyph-name="uni0237" unicode="&#x237;" horiz-adv-x="639" 
d="M259 1536h121v-1723q0 -178 -106.5 -283.5t-274.5 -105.5q-8 0 -17 0.5t-21 2.5l6 113h30q113 0 187.5 72.5t74.5 200.5v1723z" />
    <glyph glyph-name="uni0238" unicode="&#x238;" horiz-adv-x="2455" 
d="M2336 756v-28q0 -212 -70 -383.5t-198 -272t-301 -100.5q-300 0 -455 190v-162h-164l-7 144q-150 -172 -434 -172q-164 0 -296 99t-209.5 270.5t-77.5 386.5v28q0 227 76.5 398t209 266.5t301.5 95.5q274 0 424 -165v761h177v-785q154 189 451 189q179 0 307 -94.5
t197 -265t69 -400.5zM2156 728v28q0 167 -45 304t-142.5 218.5t-256.5 81.5q-146 0 -244.5 -75.5t-155.5 -184.5v-211q4 -38 7 -77v-120q-3 -41 -7 -80v-212q57 -106 156.5 -189t247.5 -83t245.5 83.5t146 220.5t48.5 296zM304 756v-28q0 -165 47.5 -301.5t146.5 -217.5
t250 -81q149 -1 239.5 68t147.5 171v770q-56 92 -149 157.5t-231 65.5q-158 0 -258 -84.5t-146.5 -222t-46.5 -297.5z" />
    <glyph glyph-name="uni0239" unicode="&#x239;" horiz-adv-x="2455" 
d="M1135 -572v693q-154 -149 -415 -149q-182 0 -316 99t-207 270t-73 387v28q0 226 71.5 397t204.5 267t317 96q265 0 421 -153l2 125h153l11 -158q161 186 452 186q186 0 314.5 -97t195 -269.5t66.5 -398.5v-23q0 -217 -67.5 -387.5t-195 -269.5t-309.5 -99
q-290 0 -448 163v-707h-177zM304 756v-28q0 -172 52 -311.5t153.5 -221t249.5 -80.5q129 -1 221 59t155 154v203q-9 54 -14 114v162q5 62 14 119v241q-61 86 -153 146t-217 60q-157 0 -259.5 -88t-152 -228.5t-49.5 -300.5zM2149 728v23q0 161 -48.5 300t-150 224t-262.5 85
q-130 0 -223.5 -65.5t-152.5 -159.5v-108q24 -100 31 -220v-118q-7 -124 -31 -226v-129q60 -93 151.5 -156.5t228.5 -62.5q156 -1 257.5 84t150.5 225t49 304z" />
    <glyph glyph-name="uni023A" unicode="&#x23a;" horiz-adv-x="1769" 
d="M1476 2308l-307 -816l538 -1492h-132l-234 655h-488l-345 -915h-204l344 915h-197l-234 -655h-132l739 2048h144l100 -276l201 536h207zM691 771l312 830l-102 286h-10l-399 -1116h199zM1104 1320l-207 -549h403z" />
    <glyph glyph-name="uni023B" unicode="&#x23b;" horiz-adv-x="2040" 
d="M491 -260l133 353q-200 125 -316 366t-116 565q0 318 110.5 554.5t306 367t450.5 130.5q81 0 154.5 -13.5t138.5 -37.5l107 283h121l-125 -330q168 -93 269.5 -247.5t131.5 -322.5h-128q-25 131 -106.5 253t-210.5 199l-643 -1706q136 -62 291 -62q185 0 325.5 79
t229 204.5t114.5 264.5h128q-29 -166 -130.5 -319t-269.5 -251t-397 -98q-180 0 -334 67l-113 -299h-121zM668 211l641 1699q-118 46 -250 46q-202 0 -371 -108t-271 -315.5t-102 -508.5q0 -295 98 -500t255 -313z" />
    <glyph glyph-name="uni023C" unicode="&#x23c;" horiz-adv-x="1515" 
d="M1432 2048l-260 -595q88 -63 146.5 -157.5t77.5 -211.5h-124q-30 158 -149 258l-525 -1203q106 -58 231 -58q169 0 292.5 100t153.5 267h124q-22 -142 -100 -250t-199 -169t-271 -61t-278 65l-266 -609h-157l303 689q-124 106 -193.5 274.5t-69.5 375.5q0 228 84 408
t233 284t343 104q117 0 221 -40l232 529h151zM1002 1413q-81 32 -173 32q-156 0 -278 -87.5t-192 -241t-70 -351.5q0 -167 51 -306t141 -231z" />
    <glyph glyph-name="uni023D" unicode="&#x23d;" horiz-adv-x="1584" 
d="M296 0v2048h125v-1932h1000v-116h-1125zM-41 1004v104h800v-104h-800z" />
    <glyph glyph-name="uni023E" unicode="&#x23e;" horiz-adv-x="1759" 
d="M315 -260l500 1331v861h-655v116h1022l98 260h207l-98 -260h206v-116h-250l-405 -1075v-857h-125v525l-296 -785h-204zM940 1403l199 529h-199v-529z" />
    <glyph glyph-name="uni023F" unicode="&#x23f;" horiz-adv-x="1395" 
d="M325 340q29 -50 55.5 -95.5t51.5 -87.5q104 -77 272 -77q188 0 303.5 89t115.5 228q0 219 -274 286l-245 60q-188 46 -282 148t-94 250q0 124 65 218t179 147t261 53q195 0 318 -92t178 -262l-113 -30q-42 126 -133.5 199.5t-249.5 73.5q-169 0 -276.5 -84t-107.5 -219
q0 -217 296 -290l236 -59q366 -91 366 -395q0 -127 -69 -225t-191 -153t-282 -55q-96 0 -177 21q96 -170 151 -262.5t90.5 -128t74.5 -35.5q32 0 73.5 31t66.5 54l68 -117q-29 -35 -90.5 -71t-109.5 -36q-95 0 -172.5 60t-167.5 217l-319 559l9 6q-17 43 -27 91l117 30
q7 -30 16 -57z" />
    <glyph glyph-name="uni0240" unicode="&#x240;" horiz-adv-x="1337" 
d="M345 143v-143h-161v168l952 1228h-992v140h1147v-148zM428 143q153 -1 260.5 -60.5t184 -147t134 -174.5t108 -146t108.5 -59q51 0 85.5 10.5t71.5 46.5l60 -82q-29 -31 -86 -69t-134 -38q-92 0 -154.5 58t-115.5 144t-116 172t-154.5 144t-232.5 58h-19v143zM428 143v0
h-1h1z" />
    <glyph glyph-name="uni0241" unicode="&#x241;" horiz-adv-x="1453" 
d="M683 571h8q136 1 225.5 52t141 135.5t72.5 186t21 202.5v152q1 149 -43 279.5t-146 212t-278 81.5q-167 -1 -272.5 -100t-119.5 -268h-169q10 144 79.5 264t192.5 192t294 72q224 0 365.5 -105.5t209 -273t67.5 -354.5v-152q0 -176 -57.5 -335t-178 -267t-308.5 -131
v-414h-187v571h83z" />
    <glyph glyph-name="uni0242" unicode="&#x242;" horiz-adv-x="1451" 
d="M203 975q0 178 72 298.5t187.5 181.5t244.5 61q245 0 394 -132t150 -440q0 -107 -33.5 -210.5t-122.5 -179t-254 -100.5v-454h-177v579h116q155 1 226 103t71 274q0 113 -36.5 207.5t-118 152t-215.5 57.5q-100 0 -173.5 -54.5t-113 -144.5t-40.5 -199h-177zM732 445
q-17 -1 -35 -1h35v1z" />
    <glyph glyph-name="uni0243" unicode="&#x243;" horiz-adv-x="1955" 
d="M439 0v2048h665q279 0 427 -146t148 -382q0 -187 -88 -307.5t-231 -157.5v-12q106 -8 196.5 -73.5t146.5 -177.5t56 -261q0 -235 -152 -383t-449 -148h-719zM564 116h594q231 0 355.5 116t124.5 299q0 129 -60.5 231.5t-167.5 161.5t-248 59h-598v-867zM564 1097h583
q196 0 303.5 123.5t107.5 299.5q0 191 -118 301.5t-336 110.5h-540v-835zM107 540v104h800v-104h-800z" />
    <glyph glyph-name="uni0244" unicode="&#x244;" horiz-adv-x="2053" 
d="M2059 1204v-108h-286v-404q0 -215 -100.5 -378.5t-271.5 -255t-384 -91.5q-211 0 -383 92t-272.5 255.5t-100.5 377.5v404h-266v108h266v844h125v-844h1262v844h125v-844h286zM1648 1096h-1262v-404q0 -179 84 -315.5t227 -213t320 -76.5q178 0 320.5 76.5t226.5 213
t84 315.5v404z" />
    <glyph glyph-name="uni0245" unicode="&#x245;" horiz-adv-x="1955" 
d="M1599 0l-623 1711l-613 -1711h-195l732 1941l-20 63h197l-21 -61l740 -1943h-197z" />
    <glyph glyph-name="uni0246" unicode="&#x246;" horiz-adv-x="1657" 
d="M1412 2308l-75 -260h99v-116h-132l-245 -849h316v-116h-349l-246 -851h680v-116h-713l-75 -260h-228l75 260h-223v2048h813l75 260h228zM1076 1932h-655v-849h410zM798 967h-377v-851h131z" />
    <glyph glyph-name="uni0247" unicode="&#x247;" horiz-adv-x="1605" 
d="M1432 2048l-262 -599q130 -93 210.5 -254.5t80.5 -377.5v-76h-600l-263 -600q114 -60 254 -60q125 0 214.5 42.5t147.5 103.5t86 118l111 -45q-35 -77 -108.5 -154t-186 -127.5t-264.5 -50.5q-164 0 -300 68l-267 -612h-157l304 691q-126 105 -195 272.5t-69 373.5
q0 230 84.5 410t232.5 284t338 104q117 0 224 -43l234 532h151zM755 852l246 559q-85 34 -178 34q-146 0 -261.5 -78.5t-187 -213t-83.5 -301.5h464zM707 741h-418q4 -331 192 -514zM1122 1339l-213 -487h430q0 153 -58.5 280.5t-158.5 206.5z" />
    <glyph glyph-name="uni0248" unicode="&#x248;" horiz-adv-x="1485" 
d="M1064 2048h125v-1491q0 -204 -70.5 -333t-189 -190.5t-265.5 -61.5q-150 0 -268.5 56.5t-187 156.5t-68.5 231h124q-1 -143 114 -235.5t286 -92.5q111 0 201.5 47t144.5 150t54 272v1491zM727 1164v104h800v-104h-800z" />
    <glyph glyph-name="uni0249" unicode="&#x249;" horiz-adv-x="639" 
d="M259 1536h121v-1723q0 -178 -106.5 -283.5t-274.5 -105.5q-8 0 -17 0.5t-21 2.5l6 113h30q113 0 187.5 72.5t74.5 200.5v1723zM-81 821v104h800v-104h-800zM319 1808q-40 0 -69.5 28t-29.5 68t29.5 68t69.5 28q41 0 69.5 -28t28.5 -68t-28.5 -68t-69.5 -28z" />
    <glyph glyph-name="uni024A" unicode="&#x24a;" horiz-adv-x="2103" 
d="M1816 2048v-2260q0 -139 63 -192t169 -53q35 0 55 8v-118q-16 -9 -35.5 -9.5t-34.5 0.5h-10q-89 0 -160.5 52t-113 135.5t-41.5 176.5v552h-16q-81 -190 -252.5 -281.5t-379.5 -93.5q-260 1 -457 133.5t-307 373t-109 563.5q-1 309 106.5 543.5t304.5 366t462 131.5
q211 0 383.5 -89t248.5 -266h27v327h97zM1004 103q195 0 330.5 73.5t218.5 202.5t121 296.5t38 355.5q0 181 -42 347t-128 296.5t-219 206t-315 75.5q-210 0 -370 -123.5t-249 -333t-89 -468.5q0 -283 92.5 -491.5t252 -322.5t359.5 -114z" />
    <glyph glyph-name="uni024B" unicode="&#x24b;" horiz-adv-x="1713" 
d="M1635 -576q-90 0 -162 52t-114 135.5t-42 176.5v443h-25q-18 -21 -45.5 -64.5t-77 -90.5t-130 -80t-203.5 -33q-203 0 -354 102t-234 282.5t-83 416.5q0 227 81.5 406t233.5 282.5t363 103.5q123 0 202.5 -32t127 -76.5t74.5 -85.5t45 -59h36v233h100v-1748
q-1 -139 61 -192t168 -53q34 0 58 8v-118q-18 -9 -37 -9.5t-33 0.5h-10zM799 92q169 0 284.5 86t175 239t60.5 351q-1 293 -132 477t-388 184q-179 0 -297 -89.5t-176 -239.5t-58 -332q0 -184 59 -338t177 -246t295 -92zM1363 913v-263l16 97z" />
    <glyph glyph-name="uni024C" unicode="&#x24c;" horiz-adv-x="1771" 
d="M307 0v832h-267v155h267v1061h631q195 0 334.5 -76t214.5 -210.5t75 -312.5q0 -207 -103 -355t-290 -205l483 -889h-144l-465 862q-51 -6 -104 -6h-507v-856h-125zM432 973h504q236 0 369 129.5t133 346.5q0 219 -133.5 351t-369.5 132h-503v-959z" />
    <glyph glyph-name="uni024D" unicode="&#x24d;" horiz-adv-x="1040" 
d="M253 0v1536h119v-240h11q50 118 168.5 189.5t271.5 71.5q105 0 182 -37l-42 -107q-63 26 -147 26q-128 0 -227.5 -55t-156.5 -151.5t-57 -220.5v-1012h-122zM-85 684v104h800v-104h-800z" />
    <glyph glyph-name="uni024E" unicode="&#x24e;" horiz-adv-x="1771" 
d="M1776 1633v-126h-444l-381 -578v-929h-126v929l-381 578h-447v126h364l-273 415h148l271 -415h762l271 415h148l-273 -415h361zM589 1507l292 -447h14l292 447h-598z" />
    <glyph glyph-name="uni024F" unicode="&#x24f;" horiz-adv-x="1503" 
d="M1348 1136v-163h-186l-454 -1261q-118 -318 -378 -316q-46 0 -91 10t-81 26l36 107q143 -54 243.5 -4t163.5 225l79 219l-359 994h-176v163h117l-145 400h131l142 -400h702l142 400h131l-144 -400h127zM1035 973h-588l289 -816h10z" />
    <glyph glyph-name="uni0250" unicode="&#x250;" horiz-adv-x="1545" 
d="M885 1569q132 0 243 -53t177.5 -155t66.5 -248q0 -192 -139.5 -295.5t-446.5 -140.5q-117 -14 -209 -28t-144.5 -42.5t-52.5 -87.5v-64q0 -167 106 -266.5t292 -99.5q164 0 277 72.5t158 186.5l115 -43q-66 -166 -217.5 -247t-329.5 -81q-137 0 -256 51.5t-193 159
t-74 275.5v1073h122v-277h9q60 129 186.5 219.5t309.5 90.5zM873 1456q-144 0 -255.5 -70.5t-174.5 -193.5t-63 -279v-226q48 40 164.5 62.5t229.5 35.5q252 30 364 109.5t112 222.5q0 157 -108 248t-269 91z" />
    <glyph glyph-name="uni0251" unicode="&#x251;" horiz-adv-x="1784" 
d="M793 -32q-189 3 -330 103.5t-219.5 279t-78.5 414.5q0 234 79 412.5t222 278.5t333 100q132 0 254.5 -59t213.5 -181t126 -311h2l89 531h116l-134 -768l154 -768h-116l-102 527h-2q-33 -207 -127 -330.5t-220.5 -177t-259.5 -51.5zM1355 772l-10 53q-32 182 -112.5 321.5
t-192.5 218t-241 78.5q-142 0 -258.5 -91t-185 -245t-68.5 -343q0 -197 63 -351.5t176.5 -243t266.5 -88.5q126 0 239 66.5t196 205.5t117 358z" />
    <glyph glyph-name="uni0252" unicode="&#x252;" horiz-adv-x="1701" 
d="M1541 816v-28q0 -239 -67.5 -423t-195 -288t-310.5 -105q-306 1 -456 208l-20 -177h-141v1129q-1 94 -18 137.5t-41 56t-48 13.5q-6 -1 -18 -2q-27 -3 -30 -2l-32 125q40 35 85 45.5t91 10.5q67 0 112.5 -46.5t63.5 -163.5q151 211 456 213q178 -1 305 -92.5
t195.5 -249.5t68.5 -361zM1364 788v28q-1 158 -48 284.5t-143.5 201t-248.5 74.5q-152 -1 -244.5 -94.5t-151.5 -231.5v-624q59 -133 153 -222t236 -89q162 0 259.5 94t142 247.5t45.5 331.5z" />
    <glyph glyph-name="uni0253" unicode="&#x253;" horiz-adv-x="1673" 
d="M378 1303q-119 -182 -130 -447v856q0 85 35 168.5t103.5 139.5t168.5 56h9q13 1 34.5 0.5t36.5 -9.5v-118q-20 8 -58 8q-105 0 -163 -53t-58 -192v-409h22zM971 -55q-205 -47 -357 31t-243 255h10q18 -21 45.5 -64.5t77 -90.5t130 -80t203.5 -33q203 0 354 102t234 282.5
t83 416.5q0 227 -81.5 406t-233.5 282.5t-362 103.5q-62 0 -112.5 -9t-91.5 -24q71 34 152 53q209 45 359.5 -30t241.5 -240t121 -391q30 -230 -18.5 -434.5t-176.5 -347.5t-335 -188zM248 0v753q3 -63 11 -129q28 -231 112 -393h-23v-231h-100zM441 1384q28 36 72 74.5
t114 64.5q-107 -53 -186 -139zM378 1303q29 43 63 81q-21 -26 -35 -48t-25 -33h-3zM248 856v-103q-2 53 0 103z" />
    <glyph glyph-name="uni0254" unicode="&#x254;" horiz-adv-x="1455" 
d="M123 440h172q11 -86 67 -160.5t141.5 -120t183.5 -44.5q134 -1 224.5 52t145 140.5t78.5 193t25 210.5v69q-1 147 -46.5 283t-149 223t-277.5 87q-169 0 -272 -109.5t-120 -255.5h-172q12 129 82.5 245t194 189.5t292.5 73.5q222 0 363 -105.5t208.5 -273.5t67.5 -357
v-69q0 -189 -67.5 -358t-208.5 -275t-363 -106q-145 0 -270.5 71.5t-206 179.5t-92.5 217z" />
    <glyph glyph-name="uni0255" unicode="&#x255;" horiz-adv-x="1511" 
d="M819 -35q-170 1 -302 77t-216 208q-45 -34 -85.5 -67.5t-75.5 -62.5q-76 -63 -123 -98.5t-52 -17.5l-92 117q14 -1 47.5 28t84.5 77q42 40 96.5 90t119.5 102q-56 160 -56 353q0 227 83 404.5t229.5 279t337.5 101.5q137 0 253 -51.5t196 -143t108 -213.5h-127
q-22 66 -76.5 129.5t-142 105t-207.5 41.5q-165 0 -288.5 -83.5t-192 -231t-67.5 -341.5q-1 -153 40 -281q134 97 296 170.5t341 73.5q202 0 285.5 -99t83.5 -237q0 -142 -76.5 -237.5t-191 -143.5t-230.5 -49zM393 320q71 -103 179.5 -160.5t246.5 -56.5q91 -1 171.5 36
t130 103t47.5 150q0 64 -34.5 103.5t-82 58.5t-88.5 19q-135 0 -285 -77.5t-285 -175.5z" />
    <glyph glyph-name="uni0256" unicode="&#x256;" horiz-adv-x="1673" 
d="M1635 -576q-90 0 -162.5 52t-115 135.5t-42.5 176.5v212h-24v335h-15q-55 -148 -177 -257.5t-319 -109.5q-185 0 -323 102t-213.5 282t-75.5 412t76.5 411t214.5 281.5t322 102.5q197 0 319.5 -108.5t175.5 -257.5h12v855h121v-1775h19v-485q-1 -139 61 -192t168 -53
q34 0 58 8v-118q-18 -9 -37 -9.5t-33 0.5h-10zM791 81q156 0 267.5 89t171 244t59.5 351t-59.5 349.5t-171 242t-267.5 88.5q-158 0 -270.5 -89.5t-172 -243.5t-59.5 -347t59.5 -348t172 -245.5t270.5 -90.5z" />
    <glyph glyph-name="uni0257" unicode="&#x257;" horiz-adv-x="1655" 
d="M836 -37q-203 0 -354 102t-234 282.5t-83 416.5q0 227 81.5 406t233.5 282.5t363 103.5q123 0 202.5 -32t127 -76.5t74.5 -85.5t45 -59h25v428q0 83 31 163.5t98.5 134t176.5 54.5q12 -1 35 -2t45 -12v-124q-4 5 -21 5.5t-30 0.5h-7q-112 0 -165 -49t-52 -171v-1731h-100
v231h-36q-18 -21 -46 -64.5t-77 -90.5t-129.5 -80t-203.5 -33zM799 92q169 0 284.5 86t175 239t60.5 351q-1 293 -132 477t-388 184q-179 0 -297 -89.5t-176 -239.5t-58 -332q0 -184 59 -338t177 -246t295 -92z" />
    <glyph glyph-name="uni0258" unicode="&#x258;" horiz-adv-x="1456" 
d="M687 -28q-151 0 -255 44.5t-173.5 115t-118.5 148.5l141 61q65 -91 158 -159t244 -67q149 -1 251.5 79t155.5 212t54 286v3h-1009v80q-1 204 52.5 372.5t180.5 268.5t347 100q96 0 201.5 -46.5t197.5 -141t149.5 -239t57.5 -341.5v-56q0 -220 -78.5 -381.5t-221 -250
t-334.5 -88.5zM1137 875q-19 180 -83 289.5t-154 159t-185 49.5q-112 0 -185.5 -44.5t-116.5 -117.5t-64 -158t-29 -166v-12h817z" />
    <glyph glyph-name="uni0259" unicode="&#x259;" horiz-adv-x="1629" 
d="M777 1568q208 0 362 -103t238 -282t84 -408q0 -230 -84.5 -410t-232.5 -284t-338 -104q-172 0 -317 90.5t-233 257t-88 394.5v76h1172q-3 189 -70.5 338t-193 235.5t-299.5 86.5q-125 0 -214.5 -42.5t-147.5 -103.5t-86 -118l-111 45q35 77 108.5 154t186 127.5
t264.5 50.5zM1338 684h-1048q0 -167 68 -301t185 -213t263 -79t261.5 78.5t187 213t83.5 301.5z" />
    <glyph glyph-name="uni025A" unicode="&#x25a;" horiz-adv-x="1809" 
d="M599 1516q241 0 405 -137t214 -372l209 33q22 -153 70.5 -258.5t154.5 -105.5h25q51 0 59 4l25 -107q-31 -12 -67 -23t-77 -10q-151 -1 -219 89t-94 208l-65 -13v-19v-65q0 -195 -58 -339.5t-151 -239.5t-199 -142t-202 -47q-220 0 -347 102t-180.5 272t-54.5 374v91
l924 152v-188l-736 -126v-48q0 -108 36.5 -221t122 -189.5t233.5 -75.5q107 -1 205.5 60.5t161.5 199.5t62 365v65q1 150 -51 279.5t-154.5 209t-253.5 79.5q-148 0 -240 -67.5t-158 -158.5l-147 61q53 80 123 150t172.5 114t251.5 44z" />
    <glyph glyph-name="uni025B" unicode="&#x25b;" horiz-adv-x="1304" 
d="M855 797v-77h-163q-195 -1 -294.5 -97.5t-97.5 -215.5q-2 -133 123.5 -208t324.5 -75q184 0 288.5 79.5t147.5 247.5h144q-37 -206 -187.5 -342.5t-428.5 -136.5q-163 0 -288.5 56.5t-196.5 156.5t-71 231q0 49 16.5 115.5t74.5 130t182 100.5q-119 32 -170 90t-62 123.5
t-10 123.5q-1 212 141 334.5t380 122.5q256 0 401 -115t186 -318h-139q-35 122 -144 204.5t-291 83.5q-179 -1 -293 -79t-113 -212q-1 -114 90 -183t287 -69h163v-71z" />
    <glyph glyph-name="uni025C" unicode="&#x25c;" horiz-adv-x="1503" 
d="M636 797v-77h163q195 -1 294.5 -97.5t97.5 -215.5q2 -133 -123.5 -208t-324.5 -75q-184 0 -288.5 79.5t-147.5 247.5h-144q37 -206 187.5 -342.5t428.5 -136.5q163 0 288.5 56.5t196.5 156.5t71 231q0 49 -16.5 115.5t-74.5 130t-182 100.5q119 32 170 90t62 123.5
t10 123.5q1 212 -141 334.5t-380 122.5q-256 0 -401 -115t-186 -318h139q35 122 144 204.5t291 83.5q179 -1 293 -79t113 -212q1 -114 -90 -183t-287 -69h-163v-71z" />
    <glyph glyph-name="uni025D" unicode="&#x25d;" horiz-adv-x="1861" 
d="M633 731v137h163q197 0 288 69t89 183q2 134 -112.5 212t-293.5 79q-181 -1 -290.5 -83.5t-144.5 -204.5h-139q41 203 186 318t401 115q195 0 326.5 -83t175.5 -230l205 37q24 -157 73 -264t155 -107q41 0 59 4t25 7l25 -104q-70 -39 -147 -39q-150 0 -218.5 90
t-91.5 204l-66 -10q-1 -55 -17.5 -113t-67.5 -107.5t-157 -78.5q124 -37 182 -100.5t74.5 -130t16.5 -115.5q1 -131 -70.5 -231t-197 -156.5t-288.5 -56.5q-278 0 -428 136.5t-188 342.5h144q43 -168 147.5 -247.5t288.5 -79.5q199 0 324.5 75t123.5 208q2 119 -97.5 215.5
t-294.5 97.5h-163v11z" />
    <glyph glyph-name="uni025E" unicode="&#x25e;" horiz-adv-x="1543" 
d="M819 -28q167 0 297.5 56.5t205.5 156.5t74 231q1 49 -18 115.5t-80.5 129.5t-188.5 101q123 32 177.5 89.5t68.5 123.5t13 124q1 212 -150 334.5t-395 122.5q-248 0 -398.5 -98t-218.5 -269.5t-68 -393.5q0 -241 65.5 -426.5t214.5 -291t401 -105.5zM588 731v-16h251
q194 0 306.5 -94t112.5 -214q0 -133 -130 -208.5t-325 -74.5q-188 0 -307.5 85t-176.5 237t-57 349q0 171 56 310t180.5 222t328.5 84q176 -1 295 -79t118 -212q1 -114 -99 -181.5t-302 -67.5h-251v-140z" />
    <glyph glyph-name="uni025F" unicode="&#x25f;" horiz-adv-x="639" 
d="M259 1536h121v-1723q0 -178 -106.5 -283.5t-274.5 -105.5q-8 0 -17 0.5t-21 2.5l6 113h30q113 0 187.5 72.5t74.5 200.5v1723zM-81 821v104h800v-104h-800z" />
    <glyph glyph-name="uni0260" unicode="&#x260;" horiz-adv-x="1661" 
d="M1428 1475h-22v-1511q0 -289 -166.5 -430.5t-435.5 -141.5q-215 0 -362 83t-210 225l102 60q50 -112 167.5 -184t302.5 -72q222 0 351.5 114.5t129.5 350.5v382h-12q-53 -149 -180 -246t-316 -97q-182 0 -320 94t-215 265t-77 401q0 231 75.5 409.5t213.5 280t324 101.5
q200 0 320.5 -108.5t175.5 -257.5h14v343h40v176q-1 88 31.5 171.5t99 138t165.5 54.5h9q13 1 35 0.5t36 -9.5v-116q2 -1 0 -2v2q-5 1 -24 3.5t-33 2.5q-105 0 -162.5 -53t-56.5 -192v-237zM788 121q231 0 364.5 174t133.5 474q0 194 -59.5 347t-170.5 241t-268 88
q-159 0 -271.5 -89.5t-171.5 -242.5t-59 -344q0 -192 60 -338t172.5 -228t269.5 -82z" />
    <glyph glyph-name="uni0261" unicode="&#x261;" horiz-adv-x="1668" 
d="M807 -608q-215 0 -362 83t-210 225l102 60q50 -112 167.5 -184t302.5 -72q222 0 351.5 114.5t129.5 350.5v382h-12q-53 -149 -180 -246t-316 -97q-182 0 -320 94t-215 265t-77 401q0 231 75.5 409.5t213.5 280t324 101.5q200 0 320.5 -108.5t175.5 -257.5h14v343h118
v-1572q0 -289 -166.5 -430.5t-435.5 -141.5zM791 121q231 0 364.5 174t133.5 474q0 194 -59.5 347t-170.5 241t-268 88q-159 0 -271.5 -89.5t-171.5 -242.5t-59 -344q0 -192 60 -338t172.5 -228t269.5 -82z" />
    <glyph glyph-name="uni0262" unicode="&#x262;" horiz-adv-x="1699" 
d="M1472 728v-517q-25 -41 -104.5 -97.5t-206 -100t-292.5 -44.5q-204 1 -358 86t-240 235t-86 346v224q0 194 88.5 341.5t244 231t354.5 83.5q207 0 334.5 -71.5t190.5 -183t74 -233.5h-139q-17 165 -141.5 257t-318.5 92q-147 0 -274 -69.5t-205 -186.5t-78 -261v-224
q0 -148 75 -266t200.5 -187t278.5 -68q117 -1 215.5 29.5t165.5 68t87 58.5v280h-438v177h573z" />
    <glyph glyph-name="uni0263" unicode="&#x263;" horiz-adv-x="1551" 
d="M772 -600q-154 0 -221.5 85t-66.5 219q-1 37 16 84.5t33 87.5q1 3 2 5l157 332l-620 1350h143l564 -1167l552 1167h145l-614 -1341l169 -349q20 -45 22.5 -85.5t1.5 -68.5v-15q0 -134 -65 -219t-218 -85zM776 35q-67 -140 -109 -219.5t-42 -135.5q0 -42 44 -69.5
t103 -27.5q58 0 102.5 31t44.5 66q0 51 -34.5 126t-108.5 229z" />
    <glyph glyph-name="uni0264" unicode="&#x264;" horiz-adv-x="2099" 
d="M360 1187l-153 124q69 79 153 142t208 63q110 0 197 -73t156.5 -185t129.5 -228q59 116 129.5 228t158 185t198.5 73q120 0 206.5 -63t152.5 -142l-148 -124q-37 57 -80 92.5t-92 35.5q-71 0 -122 -42t-115.5 -150.5t-176.5 -309.5q8 -14 15.5 -27.5t14.5 -27.5
q71 -130 127.5 -249t55.5 -210q1 -148 -79.5 -237.5t-244.5 -89.5q-159 0 -242.5 89.5t-84.5 237.5q1 103 69 236.5t146 275.5q-110 202 -172 311.5t-112 151t-123 41.5q-55 0 -95 -35.5t-77 -92.5zM1050 605q-54 -107 -84.5 -186t-29.5 -136q-1 -55 25 -92t90 -36
q65 -1 90.5 36t26.5 92q-1 57 -32 136t-86 186z" />
    <glyph glyph-name="uni0265" unicode="&#x265;" horiz-adv-x="1599" 
d="M1244 588v948h108v-2112h-116v795h-23q-55 -109 -159 -174t-287 -65q-235 0 -377.5 133.5t-141.5 449.5v973h108v-997q0 -211 109 -326t303 -114q202 -1 338.5 126t137.5 363z" />
    <glyph glyph-name="uni0266" unicode="&#x266;" horiz-adv-x="1616" 
d="M375 996v-996h-122v1749q0 149 92 238t231 89q20 0 41.5 -0.5t38.5 -3.5v-109q-13 1 -29 1.5t-31 0.5q-97 0 -160.5 -55.5t-63.5 -160.5v-456h12q54 119 173 191t283 72q232 0 377.5 -145.5t145.5 -397.5v-1013h-122v1008q0 197 -116.5 316t-307.5 119q-192 0 -317 -123
t-125 -324z" />
    <glyph glyph-name="uni0267" unicode="&#x267;" horiz-adv-x="1579" 
d="M1220 0h21v1008q0 197 -116.5 316t-307.5 119q-192 0 -317 -123t-125 -324v-996h-122v1749q0 149 92 238t231 89q20 0 41.5 -0.5t38.5 -3.5v-109q-13 1 -29 1.5t-31 0.5q-97 0 -160.5 -55.5t-63.5 -160.5v-456h12q54 119 173 191t283 72q232 0 377.5 -145.5t145.5 -397.5
v-1013h-32v-212q-1 -93 -42.5 -176.5t-112 -135.5t-160.5 -52h-10q-14 -1 -35.5 -0.5t-37.5 9.5v118q22 -8 58 -8q105 0 167 53t62 192v212z" />
    <glyph glyph-name="uni0268" unicode="&#x268;" horiz-adv-x="639" 
d="M259 0v1536h121v-1536h-121zM320 1808q-40 0 -69.5 28t-29.5 68t29.5 68t69.5 28q41 0 69.5 -28t28.5 -68t-28.5 -68t-69.5 -28zM-80 753v104h800v-104h-800z" />
    </font>
</defs>
</svg>
